osu file format v14

[General]
AudioFilename: Taishi - worldenddominator (VW3 Ending Edit).mp3
AudioLeadIn: 1500
PreviewTime: 282558
Countdown: 0
SampleSet: Normal
StackLeniency: 0.7
Mode: 1
LetterboxInBreaks: 0
WidescreenStoryboard: 0

[Editor]
DistanceSpacing: 0.8
BeatDivisor: 4
GridSize: 32
TimelineZoom: 2.477261

[Metadata]
Title:worldenddominator (VW3 the Ending Edit)
TitleUnicode:worldenddominator (VW3 the Ending Edit)
Artist:Taishi
ArtistUnicode:Taishi
Creator:Nishizumi
Version:onidominator
Source:うみねこのなく頃に
Tags:umineko no naku koro ni ep2 beatrice battler ushiromiya 07th expansion vague in winter 3 code zts label
BeatmapID:640739
BeatmapSetID:283439

[Difficulty]
HPDrainRate:5
CircleSize:5
OverallDifficulty:5
ApproachRate:5
SliderMultiplier:1.4
SliderTickRate:1

[Events]
//Background and Video events
0,0,"beatrice.jpg",0,120
//Break Periods
2,339448,361709
2,535504,540442
//Storyboard Layer 0 (Background)
//Storyboard Layer 1 (Fail)
//Storyboard Layer 2 (Pass)
//Storyboard Layer 3 (Foreground)
//Storyboard Sound Samples

[TimingPoints]
40939,422.535211267606,4,1,0,40,1,0
40939,-166.666666666667,4,1,0,40,0,0
81502,-125,4,1,0,40,0,0
110129,-111.111111111111,4,1,0,55,0,0
113615,-101.010101010101,4,1,0,56,0,0
113720,-100,4,1,0,57,0,0
113826,-99.009900990099,4,1,0,58,0,0
113931,-98.0392156862745,4,1,0,59,0,0
114037,-97.0873786407767,4,1,0,60,0,0
114143,-96.1538461538461,4,1,0,60,0,0
114248,-95.2380952380952,4,1,0,61,0,0
114354,-94.3396226415094,4,1,0,62,0,0
114460,-93.4579439252336,4,1,0,63,0,0
114565,-92.5925925925926,4,1,0,64,0,0
114671,-91.743119266055,4,1,0,65,0,0
114777,-90.9090909090909,4,1,0,66,0,0
114882,-90.0900900900901,4,1,0,67,0,0
114988,-89.2857142857143,4,1,0,68,0,0
115093,-88.4955752212389,4,1,0,69,0,0
115199,-87.719298245614,4,1,0,70,0,0
115305,-86.9565217391304,4,1,0,70,0,0
167593,-90.9090909090909,4,1,0,69,0,0
167805,-95.2380952380952,4,1,0,68,0,0
168016,-100,4,1,0,67,0,0
168227,-105.263157894737,4,1,0,66,0,0
168439,-111.111111111111,4,1,0,65,0,0
168650,-117.647058823529,4,1,0,64,0,0
168861,-125,4,1,0,63,0,0
169072,-133.333333333333,4,1,0,62,0,0
169284,-142.857142857143,4,1,0,60,0,0
182910,-125,4,1,0,60,0,0
191678,-120.481927710843,4,1,0,60,0,0
191889,-116.279069767442,4,1,0,61,0,0
192100,-112.359550561798,4,1,0,62,0,0
192312,-109.89010989011,4,1,0,63,0,0
192523,-106.382978723404,4,1,0,64,0,0
192734,-103.092783505155,4,1,0,65,0,0
192946,-100,4,1,0,65,0,0
198122,422.535211267606,4,1,0,68,1,0
198122,-95.2380952380952,4,1,0,68,0,0
218350,-90.9090909090909,4,1,0,70,0,0
220041,-86.9565217391304,4,1,0,72,0,0
221731,-83.3333333333333,4,1,0,74,0,0
223421,-80,4,1,0,75,0,0
224900,-86.9565217391304,4,1,0,73,0,0
225111,-90.9090909090909,4,1,0,70,0,0
225322,-95.2380952380952,4,1,0,70,0,0
250516,-100,4,1,0,65,0,0
253896,422.535211267606,4,1,0,68,1,0
254001,-117.647058823529,4,1,0,63,0,0
254424,-125,4,1,0,60,0,0
279459,-121.951219512195,4,1,0,60,0,0
279670,-117.647058823529,4,1,0,61,0,0
279881,-114.942528735632,4,1,0,61,0,0
280093,-111.111111111111,4,1,0,62,0,0
280304,-107.52688172043,4,1,0,62,0,0
280515,-105.263157894737,4,1,0,63,0,0
280726,-103.092783505155,4,1,0,63,0,0
280938,-100,4,1,0,64,0,0
281043,-99.009900990099,4,1,0,64,0,0
281149,-98.0392156862745,4,1,0,65,0,0
281255,-97.0873786407767,4,1,0,65,0,0
281360,-96.1538461538461,4,1,0,66,0,0
281572,-95.2380952380952,4,1,0,66,0,0
281783,-94.3396226415094,4,1,0,67,0,0
281994,-93.4579439252336,4,1,0,67,0,0
282205,-92.5925925925926,4,1,0,68,0,0
282417,-91.743119266055,4,1,0,68,0,0
282628,-90.9090909090909,4,1,0,69,0,0
282839,-90.0900900900901,4,1,0,69,0,0
283156,-89.2857142857143,4,1,0,70,0,0
283473,-88.4955752212389,4,1,0,70,0,0
283790,-87.719298245614,4,1,0,71,0,0
284107,-86.9565217391304,4,1,0,71,0,0
284318,-86.9565217391304,4,1,0,71,0,1
309670,-86.9565217391304,4,1,0,68,0,0
309741,-100,4,1,0,68,0,0
311360,-90.9090909090909,4,1,0,73,0,1
336712,-92.5925925925926,4,1,0,72,0,1
337135,-94.3396226415094,4,1,0,71,0,1
337346,-95.2380952380952,4,1,0,70,0,1
337557,-96.1538461538461,4,1,0,69,0,1
337769,-97.0873786407767,4,1,0,68,0,1
337980,-98.0392156862745,4,1,0,67,0,1
338191,-99.009900990099,4,1,0,66,0,1
338403,-100,4,1,0,65,0,0
339248,422.535211267606,4,1,0,50,1,0
362909,-133.333333333333,4,1,0,50,0,0
367980,-200,4,1,0,45,0,0
400093,-133.333333333333,4,1,0,50,0,0
426290,-133.333333333333,4,1,0,55,0,0
453332,-129.87012987013,4,1,0,56,0,0
453438,-128.205128205128,4,1,0,56,0,0
453543,-126.582278481013,4,1,0,57,0,0
453649,-125,4,1,0,57,0,0
453755,-123.456790123457,4,1,0,58,0,0
453860,-121.951219512195,4,1,0,58,0,0
453966,-120.481927710843,4,1,0,59,0,0
454177,-117.647058823529,4,1,0,60,0,0
481114,-100,4,1,0,60,0,0
507628,-105.263157894737,4,1,0,59,0,0
507733,-108.695652173913,4,1,0,58,0,0
507839,-111.111111111111,4,1,0,57,0,0
507945,-114.942528735632,4,1,0,56,0,0
508050,-117.647058823529,4,1,0,55,0,0
508578,-133.333333333333,4,1,0,50,0,0
509846,-125,4,1,0,52,0,0
511536,-111.111111111111,4,1,0,55,0,0
513226,-100,4,1,0,57,0,0
514917,-90.9090909090909,4,1,0,60,0,0
516607,-83.3333333333333,4,1,0,62,0,0
518297,-76.9230769230769,4,1,0,65,0,0
519987,-71.4285714285714,4,1,0,67,0,0
521677,-66.6666666666667,4,1,0,70,0,0
541219,-100,4,1,0,60,0,0
541959,-90.9090909090909,4,1,0,60,0,0
542064,-90.9090909090909,4,1,0,70,0,1
542487,422.535211267606,4,1,0,70,1,1
542487,-90.9090909090909,4,1,0,70,0,1
580832,-92.5925925925926,4,1,0,69,0,1
581043,-95.2380952380952,4,1,0,68,0,1
581255,-97.0873786407767,4,1,0,67,0,1
581360,-97.0873786407767,4,1,0,66,0,0
581677,-100,4,1,0,65,0,0
596148,422.535211267606,4,1,0,60,1,0

[HitObjects]
256,192,40939,5,12,0:0:0:0:
256,192,41362,1,8,0:0:0:0:
256,184,41573,1,0,0:0:0:0:
256,184,41785,1,0,0:0:0:0:
256,184,41996,1,8,0:0:0:0:
256,184,42207,1,0,0:0:0:0:
256,184,42417,1,8,0:0:0:0:
256,184,42840,1,8,0:0:0:0:
256,184,43051,1,8,0:0:0:0:
256,184,43262,1,0,0:0:0:0:
256,176,43474,1,0,0:0:0:0:
256,176,43685,1,0,0:0:0:0:
256,184,43896,1,8,0:0:0:0:
256,176,44319,1,8,0:0:0:0:
256,176,44530,1,0,0:0:0:0:
256,176,44741,1,8,0:0:0:0:
256,176,44953,1,0,0:0:0:0:
256,176,45164,1,0,0:0:0:0:
256,176,45375,1,8,0:0:0:0:
256,176,45798,1,8,0:0:0:0:
256,176,46009,1,8,0:0:0:0:
256,176,46220,1,0,0:0:0:0:
256,176,46431,1,0,0:0:0:0:
256,176,46643,1,0,0:0:0:0:
256,176,46854,1,8,0:0:0:0:
256,176,47277,1,8,0:0:0:0:
256,176,47488,1,0,0:0:0:0:
256,176,47699,1,0,0:0:0:0:
256,176,47910,1,8,0:0:0:0:
256,176,48122,1,0,0:0:0:0:
256,176,48333,1,8,0:0:0:0:
256,176,48755,1,8,0:0:0:0:
256,176,48967,1,8,0:0:0:0:
256,176,49178,1,0,0:0:0:0:
256,176,49389,1,0,0:0:0:0:
256,176,49600,1,0,0:0:0:0:
256,176,49812,1,8,0:0:0:0:
256,176,50234,1,8,0:0:0:0:
256,176,50446,1,0,0:0:0:0:
256,176,50657,1,8,0:0:0:0:
256,176,50868,1,0,0:0:0:0:
256,176,51079,1,0,0:0:0:0:
256,176,51291,1,8,0:0:0:0:
256,176,51713,1,8,0:0:0:0:
256,176,51924,1,8,0:0:0:0:
256,176,52136,1,0,0:0:0:0:
256,176,52347,1,0,0:0:0:0:
256,176,52558,1,0,0:0:0:0:
256,192,52769,12,0,54037,0:0:0:0:
256,192,54460,5,8,0:0:0:0:
256,192,54882,1,8,0:0:0:0:
256,192,55093,1,0,0:0:0:0:
256,192,55305,1,0,0:0:0:0:
256,192,55516,1,8,0:0:0:0:
256,192,55727,1,0,0:0:0:0:
256,192,55939,1,8,0:0:0:0:
256,184,56361,1,8,0:0:0:0:
256,184,56572,1,8,0:0:0:0:
256,184,56784,1,0,0:0:0:0:
256,184,56889,1,0,0:0:0:0:
256,176,56995,1,8,0:0:0:0:
256,176,57206,1,0,0:0:0:0:
256,184,57417,1,8,0:0:0:0:
256,176,57840,1,8,0:0:0:0:
256,176,58051,1,0,0:0:0:0:
256,176,58262,1,8,0:0:0:0:
256,176,58474,1,0,0:0:0:0:
256,176,58685,1,0,0:0:0:0:
256,176,58896,1,8,0:0:0:0:
256,176,59319,1,8,0:0:0:0:
256,176,59530,1,8,0:0:0:0:
256,176,59741,1,0,0:0:0:0:
256,176,59847,1,0,0:0:0:0:
256,176,59952,1,0,0:0:0:0:
256,176,60164,1,0,0:0:0:0:
256,176,60375,1,8,0:0:0:0:
256,168,60798,1,8,0:0:0:0:
256,176,61009,1,0,0:0:0:0:
256,168,61220,1,0,0:0:0:0:
256,176,61431,1,8,0:0:0:0:
256,176,61643,1,0,0:0:0:0:
256,176,61854,1,8,0:0:0:0:
256,168,62277,1,8,0:0:0:0:
256,168,62488,1,8,0:0:0:0:
256,168,62699,1,0,0:0:0:0:
256,176,62805,1,0,0:0:0:0:
256,168,62910,1,8,0:0:0:0:
264,168,63122,1,0,0:0:0:0:
264,160,63333,1,8,0:0:0:0:
256,168,63755,1,8,0:0:0:0:
256,168,63967,1,0,0:0:0:0:
256,168,64178,1,8,0:0:0:0:
256,168,64389,1,0,0:0:0:0:
256,168,64600,1,0,0:0:0:0:
264,168,64812,1,8,0:0:0:0:
256,168,65234,1,8,0:0:0:0:
256,168,65446,1,8,0:0:0:0:
256,168,65657,1,0,0:0:0:0:
256,168,65762,1,0,0:0:0:0:
256,168,65868,1,0,0:0:0:0:
256,168,66079,1,0,0:0:0:0:
256,168,67981,5,8,0:0:0:0:
256,168,68403,1,8,0:0:0:0:
256,168,68615,1,0,0:0:0:0:
256,168,68826,1,0,0:0:0:0:
256,168,69037,1,0,0:0:0:0:
256,168,69143,1,0,0:0:0:0:
256,168,69248,1,0,0:0:0:0:
256,168,69460,1,8,0:0:0:0:
256,168,69882,1,8,0:0:0:0:
256,168,70093,1,0,0:0:0:0:
256,168,70305,1,8,0:0:0:0:
256,168,70410,1,8,0:0:0:0:
256,168,70516,1,0,0:0:0:0:
256,168,70727,1,0,0:0:0:0:
256,168,70939,1,8,0:0:0:0:
256,168,71361,1,8,0:0:0:0:
256,168,71572,1,0,0:0:0:0:
256,168,71784,1,8,0:0:0:0:
256,168,71995,1,0,0:0:0:0:
256,168,72100,1,0,0:0:0:0:
256,168,72206,1,0,0:0:0:0:
256,168,72417,1,8,0:0:0:0:
256,168,72840,1,8,0:0:0:0:
256,168,73051,1,8,0:0:0:0:
256,168,73262,1,0,0:0:0:0:
256,168,73368,1,0,0:0:0:0:
256,168,73474,1,0,0:0:0:0:
256,168,73685,1,0,0:0:0:0:
256,168,73896,1,8,0:0:0:0:
256,168,74319,1,8,0:0:0:0:
256,160,74530,1,0,0:0:0:0:
256,160,74741,1,0,0:0:0:0:
256,160,74953,1,8,0:0:0:0:
256,160,75058,1,8,0:0:0:0:
256,168,75164,1,0,0:0:0:0:
256,168,75375,1,8,0:0:0:0:
256,168,75798,1,8,0:0:0:0:
256,168,76009,1,8,0:0:0:0:
256,168,76220,1,0,0:0:0:0:
256,160,76326,1,0,0:0:0:0:
256,168,76431,1,0,0:0:0:0:
256,168,76643,1,0,0:0:0:0:
256,168,76854,1,8,0:0:0:0:
264,160,77277,1,8,0:0:0:0:
264,160,77488,1,0,0:0:0:0:
264,160,77699,1,8,0:0:0:0:
264,160,77910,1,0,0:0:0:0:
264,160,78016,1,0,0:0:0:0:
264,160,78122,1,0,0:0:0:0:
264,160,78333,1,8,0:0:0:0:
264,160,78755,1,8,0:0:0:0:
264,160,78967,1,8,0:0:0:0:
264,160,79178,1,0,0:0:0:0:
264,160,79389,1,0,0:0:0:0:
264,160,79600,1,0,0:0:0:0:
256,192,79812,12,0,81080,0:0:0:0:
256,192,81502,5,8,0:0:0:0:
256,192,81924,1,8,0:0:0:0:
256,192,82136,1,0,0:0:0:0:
256,192,82347,1,0,0:0:0:0:
256,192,82558,1,8,0:0:0:0:
256,192,82769,1,0,0:0:0:0:
256,192,82981,1,8,0:0:0:0:
256,192,83192,1,0,0:0:0:0:
256,192,83403,1,0,0:0:0:0:
256,192,83615,1,8,0:0:0:0:
256,192,83826,1,0,0:0:0:0:
256,192,84037,1,0,0:0:0:0:
256,192,84248,1,0,0:0:0:0:
256,192,84460,1,8,0:0:0:0:
256,192,84882,1,8,0:0:0:0:
256,192,85093,1,0,0:0:0:0:
256,192,85305,1,8,0:0:0:0:
256,192,85516,1,0,0:0:0:0:
256,192,85727,1,0,0:0:0:0:
256,192,85939,1,8,0:0:0:0:
256,192,86150,1,0,0:0:0:0:
256,192,86361,1,8,0:0:0:0:
256,192,86572,1,8,0:0:0:0:
256,192,86784,1,0,0:0:0:0:
256,192,86995,1,0,0:0:0:0:
256,192,87206,1,0,0:0:0:0:
256,192,87417,1,8,0:0:0:0:
256,192,87840,1,8,0:0:0:0:
256,184,88051,1,8,0:0:0:0:
256,184,88262,1,0,0:0:0:0:
256,184,88474,1,0,0:0:0:0:
256,184,88685,1,0,0:0:0:0:
256,184,88896,1,8,0:0:0:0:
256,184,89108,1,0,0:0:0:0:
256,184,89319,1,8,0:0:0:0:
256,184,89530,1,8,0:0:0:0:
256,184,89741,1,0,0:0:0:0:
256,184,89953,1,0,0:0:0:0:
256,184,90164,1,0,0:0:0:0:
256,184,90375,1,8,0:0:0:0:
256,184,90798,1,8,0:0:0:0:
256,184,91009,1,8,0:0:0:0:
256,184,91220,1,0,0:0:0:0:
256,184,91431,1,0,0:0:0:0:
256,184,91643,1,0,0:0:0:0:
256,184,91854,1,8,0:0:0:0:
256,184,92277,1,8,0:0:0:0:
256,184,92488,1,8,0:0:0:0:
256,184,92699,1,0,0:0:0:0:
256,184,92910,1,0,0:0:0:0:
256,184,93122,1,0,0:0:0:0:
256,192,93333,12,0,94600,0:0:0:0:
256,192,95023,5,8,0:0:0:0:
256,192,95446,1,8,0:0:0:0:
256,192,95657,1,0,0:0:0:0:
256,192,95868,1,0,0:0:0:0:
256,192,96079,1,8,0:0:0:0:
256,192,96185,1,8,0:0:0:0:
256,192,96291,1,0,0:0:0:0:
256,192,96502,1,8,0:0:0:0:
256,192,96713,1,0,0:0:0:0:
256,192,96924,1,8,0:0:0:0:
256,192,97136,1,8,0:0:0:0:
256,192,97347,1,0,0:0:0:0:
256,192,97558,1,0,0:0:0:0:
256,192,97769,1,0,0:0:0:0:
256,192,97981,1,8,0:0:0:0:
256,192,98404,1,8,0:0:0:0:
256,192,98615,1,0,0:0:0:0:
256,192,98827,1,8,0:0:0:0:
256,192,99038,1,0,0:0:0:0:
256,192,99143,1,0,0:0:0:0:
256,192,99249,1,0,0:0:0:0:
256,192,99461,1,8,0:0:0:0:
256,192,99672,1,0,0:0:0:0:
256,192,99883,1,8,0:0:0:0:
256,192,100094,1,8,0:0:0:0:
256,192,100306,1,0,0:0:0:0:
256,192,100517,1,0,0:0:0:0:
256,192,100728,1,0,0:0:0:0:
256,192,100940,1,8,0:0:0:0:
256,192,101362,1,8,0:0:0:0:
256,192,101573,1,0,0:0:0:0:
256,192,101785,1,0,0:0:0:0:
256,192,101994,1,8,0:0:0:0:
256,192,102100,1,8,0:0:0:0:
264,192,102206,1,0,0:0:0:0:
264,192,102418,1,8,0:0:0:0:
264,192,102630,1,0,0:0:0:0:
264,192,102841,1,8,0:0:0:0:
264,192,103052,1,8,0:0:0:0:
264,192,103263,1,0,0:0:0:0:
264,192,103475,1,0,0:0:0:0:
264,192,103686,1,0,0:0:0:0:
264,192,103897,1,8,0:0:0:0:
264,192,104320,1,8,0:0:0:0:
264,192,104531,1,8,0:0:0:0:
264,192,104742,1,0,0:0:0:0:
264,192,104954,1,0,0:0:0:0:
264,192,105059,1,0,0:0:0:0:
264,192,105164,1,0,0:0:0:0:
264,192,105375,1,8,0:0:0:0:
264,192,105587,1,0,0:0:0:0:
264,192,105799,1,8,0:0:0:0:
264,192,106010,1,0,0:0:0:0:
264,192,106221,1,0,0:0:0:0:
264,192,106432,1,8,0:0:0:0:
264,192,106644,1,0,0:0:0:0:
264,192,106855,1,8,0:0:0:0:
264,192,107278,1,8,0:0:0:0:
264,192,107489,1,0,0:0:0:0:
264,192,107700,1,0,0:0:0:0:
264,192,107911,1,8,0:0:0:0:
264,192,108017,1,0,0:0:0:0:
264,192,108123,1,0,0:0:0:0:
264,192,108334,1,8,0:0:0:0:
256,192,110235,12,0,113193,0:0:0:0:
256,192,113616,5,0,0:0:0:0:
256,192,113721,1,0,0:0:0:0:
256,192,113827,1,8,0:0:0:0:
264,192,113932,1,0,0:0:0:0:
264,192,114038,1,0,0:0:0:0:
264,192,114144,1,8,0:0:0:0:
264,192,114249,1,0,0:0:0:0:
264,192,114355,1,0,0:0:0:0:
264,192,114461,1,8,0:0:0:0:
264,192,114566,1,0,0:0:0:0:
264,192,114672,1,0,0:0:0:0:
264,192,114778,1,8,0:0:0:0:
264,192,114883,1,0,0:0:0:0:
264,192,114989,1,0,0:0:0:0:
264,192,115094,1,8,0:0:0:0:
264,192,115164,1,8,0:0:0:0:
264,192,115234,1,8,0:0:0:0:
264,192,115306,1,0,0:0:0:0:
264,192,115517,1,0,0:0:0:0:
264,192,115623,1,0,0:0:0:0:
264,192,115728,1,8,0:0:0:0:
264,192,115940,1,0,0:0:0:0:
264,192,116045,1,0,0:0:0:0:
264,192,116256,1,0,0:0:0:0:
264,192,116362,1,0,0:0:0:0:
264,192,116468,1,0,0:0:0:0:
264,192,116573,1,8,0:0:0:0:
264,192,116785,1,0,0:0:0:0:
264,192,116890,1,0,0:0:0:0:
264,192,116996,1,0,0:0:0:0:
264,192,117207,1,0,0:0:0:0:
264,192,117313,1,0,0:0:0:0:
264,192,117418,1,8,0:0:0:0:
264,192,117630,1,0,0:0:0:0:
264,184,117735,1,0,0:0:0:0:
264,192,117947,1,8,0:0:0:0:
264,192,118052,1,0,0:0:0:0:
264,192,118158,1,0,0:0:0:0:
264,192,118263,1,8,0:0:0:0:
264,192,118475,1,8,0:0:0:0:
264,192,118580,1,0,0:0:0:0:
264,192,118686,1,0,0:0:0:0:
264,192,118897,1,0,0:0:0:0:
264,192,119003,1,0,0:0:0:0:
264,192,119109,1,8,0:0:0:0:
264,192,119320,1,0,0:0:0:0:
264,192,119425,1,0,0:0:0:0:
264,192,119637,1,8,0:0:0:0:
264,192,119742,1,0,0:0:0:0:
264,192,119848,1,0,0:0:0:0:
264,192,119954,1,8,0:0:0:0:
264,192,120165,1,8,0:0:0:0:
264,192,120270,1,8,0:0:0:0:
264,192,120376,1,0,0:0:0:0:
264,192,120587,1,0,0:0:0:0:
264,192,120693,1,0,0:0:0:0:
264,192,120799,1,8,0:0:0:0:
264,192,121010,1,0,0:0:0:0:
264,192,121116,1,0,0:0:0:0:
264,192,121327,1,8,0:0:0:0:
264,192,121431,1,8,0:0:0:0:
264,192,121538,1,0,0:0:0:0:
264,192,121644,1,8,0:0:0:0:
264,192,121855,1,8,0:0:0:0:
264,192,121961,1,8,0:0:0:0:
264,192,122066,1,0,0:0:0:0:
264,192,122278,1,8,0:0:0:0:
264,192,122383,1,0,0:0:0:0:
264,192,122489,1,8,0:0:0:0:
264,192,122700,1,0,0:0:0:0:
264,192,122806,1,0,0:0:0:0:
264,192,123017,1,8,0:0:0:0:
264,192,123123,1,8,0:0:0:0:
264,192,123228,1,0,0:0:0:0:
272,184,123334,1,8,0:0:0:0:
264,192,123545,1,0,0:0:0:0:
264,192,123651,1,8,0:0:0:0:
264,192,123756,1,0,0:0:0:0:
264,192,123968,1,8,0:0:0:0:
264,184,124073,1,0,0:0:0:0:
264,184,124179,1,8,0:0:0:0:
264,192,124390,1,0,0:0:0:0:
264,192,124496,1,0,0:0:0:0:
264,192,124600,1,0,0:0:0:0:
264,192,124707,1,8,0:0:0:0:
264,184,124812,1,8,0:0:0:0:
264,184,124918,1,0,0:0:0:0:
264,184,125024,1,8,0:0:0:0:
264,192,125235,1,0,0:0:0:0:
264,192,125341,1,8,0:0:0:0:
264,192,125447,1,0,0:0:0:0:
264,184,125658,1,8,0:0:0:0:
264,192,125763,1,0,0:0:0:0:
264,192,125869,1,8,0:0:0:0:
264,184,126080,1,0,0:0:0:0:
264,184,126186,1,0,0:0:0:0:
264,192,126291,1,0,0:0:0:0:
264,184,126397,1,8,0:0:0:0:
272,176,126503,1,0,0:0:0:0:
264,192,126609,1,0,0:0:0:0:
272,176,126714,1,8,0:0:0:0:
272,176,126924,1,8,0:0:0:0:
264,192,127030,1,8,0:0:0:0:
264,184,127137,1,0,0:0:0:0:
264,184,127348,1,8,0:0:0:0:
264,184,127454,1,0,0:0:0:0:
272,184,127559,1,8,0:0:0:0:
272,176,127770,1,0,0:0:0:0:
272,176,127876,1,0,0:0:0:0:
264,192,127981,1,0,0:0:0:0:
272,176,128087,1,8,0:0:0:0:
272,176,128193,1,8,0:0:0:0:
264,192,128299,1,0,0:0:0:0:
272,176,128404,1,8,0:0:0:0:
264,176,128616,1,0,0:0:0:0:
256,192,128827,1,12,0:0:0:0:
264,192,129038,1,0,0:0:0:0:
256,192,129144,1,0,0:0:0:0:
264,192,129249,1,0,0:0:0:0:
264,192,129461,1,0,0:0:0:0:
264,192,129566,1,8,0:0:0:0:
264,192,129672,1,8,0:0:0:0:
264,192,129778,1,0,0:0:0:0:
264,192,129882,1,8,0:0:0:0:
264,192,129989,1,0,0:0:0:0:
264,192,130094,1,0,0:0:0:0:
256,192,130306,1,8,0:0:0:0:
256,192,130517,1,0,0:0:0:0:
256,192,130728,1,8,0:0:0:0:
256,192,130833,1,8,0:0:0:0:
256,192,130940,1,0,0:0:0:0:
256,192,131151,1,0,0:0:0:0:
256,192,131255,1,8,0:0:0:0:
256,192,131362,1,8,0:0:0:0:
256,192,131468,1,8,0:0:0:0:
256,192,131573,1,0,0:0:0:0:
256,192,131678,1,8,0:0:0:0:
256,192,131785,1,0,0:0:0:0:
256,192,131996,1,8,0:0:0:0:
256,192,132207,1,0,0:0:0:0:
256,192,132417,1,8,0:0:0:0:
256,184,132523,1,8,0:0:0:0:
256,192,132629,1,0,0:0:0:0:
256,192,132841,1,0,0:0:0:0:
256,192,132946,1,0,0:0:0:0:
256,192,133052,1,8,0:0:0:0:
256,192,133157,1,8,0:0:0:0:
256,192,133262,1,0,0:0:0:0:
256,192,133368,1,8,0:0:0:0:
256,192,133475,1,0,0:0:0:0:
256,192,133685,1,8,0:0:0:0:
256,192,133896,1,0,0:0:0:0:
248,192,134109,1,8,0:0:0:0:
256,192,134214,1,0,0:0:0:0:
256,192,134320,1,0,0:0:0:0:
256,192,134531,1,0,0:0:0:0:
256,192,134636,1,0,0:0:0:0:
256,192,134741,1,8,0:0:0:0:
256,192,134847,1,0,0:0:0:0:
256,192,134953,1,8,0:0:0:0:
256,192,135058,1,0,0:0:0:0:
256,184,135165,1,0,0:0:0:0:
256,184,135376,1,8,0:0:0:0:
256,192,135586,1,0,0:0:0:0:
256,184,135798,1,0,0:0:0:0:
256,184,135903,1,8,0:0:0:0:
256,184,136009,1,0,0:0:0:0:
256,184,136221,1,0,0:0:0:0:
256,184,136326,1,0,0:0:0:0:
256,176,136432,1,8,0:0:0:0:
256,184,136538,1,8,0:0:0:0:
256,184,136644,1,8,0:0:0:0:
256,184,136749,1,8,0:0:0:0:
256,184,136854,1,0,0:0:0:0:
248,184,137065,1,8,0:0:0:0:
256,184,137277,1,0,0:0:0:0:
256,184,137489,1,0,0:0:0:0:
248,176,137593,1,0,0:0:0:0:
248,176,137699,1,8,0:0:0:0:
256,176,137911,1,0,0:0:0:0:
256,176,138122,1,0,0:0:0:0:
256,184,138227,1,8,0:0:0:0:
256,184,138334,1,8,0:0:0:0:
256,184,138439,1,8,0:0:0:0:
256,184,138544,1,0,0:0:0:0:
256,184,138756,1,8,0:0:0:0:
256,184,138967,1,0,0:0:0:0:
256,184,139179,1,0,0:0:0:0:
256,184,139389,1,8,0:0:0:0:
256,184,139600,1,0,0:0:0:0:
256,184,139813,1,0,0:0:0:0:
256,184,139917,1,0,0:0:0:0:
256,184,140024,1,8,0:0:0:0:
256,184,140130,1,8,0:0:0:0:
256,184,140235,1,0,0:0:0:0:
256,184,140447,1,8,0:0:0:0:
256,176,140657,1,0,0:0:0:0:
256,184,140869,1,0,0:0:0:0:
256,184,141079,1,8,0:0:0:0:
256,184,141291,1,0,0:0:0:0:
248,184,141503,1,0,0:0:0:0:
248,184,141608,1,0,0:0:0:0:
248,176,141713,1,8,0:0:0:0:
248,184,141819,1,0,0:0:0:0:
248,176,141925,1,0,0:0:0:0:
248,176,142137,1,0,0:0:0:0:
256,184,142348,1,12,0:0:0:0:
248,184,142559,1,0,0:0:0:0:
248,184,142665,1,0,0:0:0:0:
248,184,142770,1,8,0:0:0:0:
256,184,142982,1,8,0:0:0:0:
256,184,143193,1,0,0:0:0:0:
256,184,143404,1,0,0:0:0:0:
256,184,143614,1,0,0:0:0:0:
248,184,143826,1,8,0:0:0:0:
248,184,144038,1,0,0:0:0:0:
256,184,144144,1,0,0:0:0:0:
256,184,144249,1,8,0:0:0:0:
256,184,144461,1,0,0:0:0:0:
256,184,144672,1,0,0:0:0:0:
256,184,144777,1,0,0:0:0:0:
256,184,144883,1,8,0:0:0:0:
248,184,144989,1,0,0:0:0:0:
248,184,145094,1,8,0:0:0:0:
248,184,145200,1,8,0:0:0:0:
248,184,145306,1,0,0:0:0:0:
256,176,145516,1,0,0:0:0:0:
256,184,145728,1,0,0:0:0:0:
256,184,145940,1,8,0:0:0:0:
256,184,146044,1,8,0:0:0:0:
256,184,146151,1,0,0:0:0:0:
248,184,146362,1,0,0:0:0:0:
256,176,146467,1,0,0:0:0:0:
248,184,146573,1,8,0:0:0:0:
256,184,146678,1,8,0:0:0:0:
248,184,146785,1,0,0:0:0:0:
248,184,146890,1,8,0:0:0:0:
248,184,146996,1,0,0:0:0:0:
248,184,147207,1,8,0:0:0:0:
248,184,147418,1,0,0:0:0:0:
248,184,147630,1,8,0:0:0:0:
248,184,147735,1,0,0:0:0:0:
248,184,147841,1,0,0:0:0:0:
248,184,148052,1,0,0:0:0:0:
264,176,148157,1,0,0:0:0:0:
248,184,148263,1,8,0:0:0:0:
248,184,148369,1,8,0:0:0:0:
248,184,148475,1,8,0:0:0:0:
248,184,148580,1,8,0:0:0:0:
248,184,148686,1,0,0:0:0:0:
248,184,148897,1,0,0:0:0:0:
248,184,149109,1,0,0:0:0:0:
248,184,149320,1,0,0:0:0:0:
248,184,149425,1,0,0:0:0:0:
256,184,149531,1,8,0:0:0:0:
256,184,149742,1,8,0:0:0:0:
256,184,149954,1,0,0:0:0:0:
256,184,150165,1,0,0:0:0:0:
256,184,150270,1,0,0:0:0:0:
256,184,150376,1,8,0:0:0:0:
256,184,150587,1,0,0:0:0:0:
256,184,150799,1,8,0:0:0:0:
256,184,151010,1,8,0:0:0:0:
256,184,151116,1,0,0:0:0:0:
256,184,151221,1,0,0:0:0:0:
256,184,151432,1,0,0:0:0:0:
256,184,151644,1,0,0:0:0:0:
256,184,151855,1,8,0:0:0:0:
256,184,151961,1,8,0:0:0:0:
256,184,152066,1,0,0:0:0:0:
256,184,152278,1,8,0:0:0:0:
256,184,152489,1,0,0:0:0:0:
256,184,152700,1,8,0:0:0:0:
256,184,152806,1,8,0:0:0:0:
256,184,152911,1,0,0:0:0:0:
256,184,153123,1,8,0:0:0:0:
256,184,153334,1,0,0:0:0:0:
256,184,153440,1,8,0:0:0:0:
256,184,153545,1,8,0:0:0:0:
256,184,153651,1,8,0:0:0:0:
256,184,153756,1,0,0:0:0:0:
256,184,153967,1,8,0:0:0:0:
256,184,154178,1,0,0:0:0:0:
256,184,154390,1,8,0:0:0:0:
256,184,154496,1,0,0:0:0:0:
256,184,154601,1,0,0:0:0:0:
256,184,154813,1,8,0:0:0:0:
256,184,155129,1,0,0:0:0:0:
256,184,155235,1,0,0:0:0:0:
256,184,155447,1,8,0:0:0:0:
256,184,155658,1,0,0:0:0:0:
256,184,155868,1,12,0:0:0:0:
256,184,156080,1,0,0:0:0:0:
256,184,156186,1,0,0:0:0:0:
256,184,156292,1,8,0:0:0:0:
256,184,156503,1,8,0:0:0:0:
256,184,156714,1,0,0:0:0:0:
256,184,156925,1,0,0:0:0:0:
256,184,157137,1,0,0:0:0:0:
256,184,157348,1,8,0:0:0:0:
256,184,157559,1,0,0:0:0:0:
256,184,157770,1,0,0:0:0:0:
256,184,157876,1,0,0:0:0:0:
256,184,157982,1,8,0:0:0:0:
256,184,158193,1,0,0:0:0:0:
256,184,158404,1,0,0:0:0:0:
256,184,158616,1,0,0:0:0:0:
256,184,158827,1,8,0:0:0:0:
256,184,159038,1,0,0:0:0:0:
256,184,159144,1,0,0:0:0:0:
256,176,159249,1,8,0:0:0:0:
264,176,159461,1,8,0:0:0:0:
264,176,159672,1,0,0:0:0:0:
256,192,159883,1,0,0:0:0:0:
256,192,160094,1,0,0:0:0:0:
256,192,160306,1,8,0:0:0:0:
256,192,160517,1,0,0:0:0:0:
256,192,160728,1,0,0:0:0:0:
256,192,160834,1,0,0:0:0:0:
256,192,160940,1,8,0:0:0:0:
256,192,161150,1,8,0:0:0:0:
256,192,161362,1,0,0:0:0:0:
256,176,161573,1,0,0:0:0:0:
256,176,161785,1,8,0:0:0:0:
256,176,161996,1,0,0:0:0:0:
256,184,162101,1,0,0:0:0:0:
256,176,162207,1,8,0:0:0:0:
256,184,162418,1,8,0:0:0:0:
256,184,162630,1,0,0:0:0:0:
256,184,162841,1,0,0:0:0:0:
264,184,162947,1,0,0:0:0:0:
256,184,163051,1,0,0:0:0:0:
256,184,163263,1,8,0:0:0:0:
256,184,163475,1,0,0:0:0:0:
256,184,163580,1,0,0:0:0:0:
256,184,163686,1,0,0:0:0:0:
256,184,163897,1,8,0:0:0:0:
256,184,164109,1,0,0:0:0:0:
256,184,164320,1,0,0:0:0:0:
256,184,164531,1,0,0:0:0:0:
256,184,164742,1,8,0:0:0:0:
256,184,164954,1,0,0:0:0:0:
256,184,165059,1,0,0:0:0:0:
256,184,165165,1,8,0:0:0:0:
256,184,165376,1,8,0:0:0:0:
256,184,165587,1,0,0:0:0:0:
256,184,165799,1,0,0:0:0:0:
256,184,165904,1,0,0:0:0:0:
256,184,166010,1,0,0:0:0:0:
256,184,166221,1,8,0:0:0:0:
256,184,166432,1,0,0:0:0:0:
256,184,166644,1,8,0:0:0:0:
256,184,166855,1,8,0:0:0:0:
256,184,167066,1,0,0:0:0:0:
256,184,167278,1,8,0:0:0:0:
256,184,167488,1,0,0:0:0:0:
256,192,167700,1,0,0:0:0:0:
256,192,167911,1,8,0:0:0:0:
256,192,168123,1,8,0:0:0:0:
256,192,168334,1,0,0:0:0:0:
256,192,168545,1,0,0:0:0:0:
256,192,168756,1,8,0:0:0:0:
256,184,168968,1,8,0:0:0:0:
256,192,169179,1,0,0:0:0:0:
256,192,169390,1,4,0:0:0:0:
248,192,169811,1,0,0:0:0:0:
256,184,170234,1,8,0:0:0:0:
256,184,170657,1,8,0:0:0:0:
256,184,170868,1,0,0:0:0:0:
256,184,170974,1,8,0:0:0:0:
256,184,171079,1,0,0:0:0:0:
256,184,171502,1,0,0:0:0:0:
256,184,171924,1,8,0:0:0:0:
256,184,172347,1,0,0:0:0:0:
256,184,172769,1,0,0:0:0:0:
256,184,173192,1,8,0:0:0:0:
256,184,173615,1,8,0:0:0:0:
256,184,174036,1,0,0:0:0:0:
256,184,174460,1,8,0:0:0:0:
256,184,174882,1,8,0:0:0:0:
256,184,175305,1,0,0:0:0:0:
256,184,175727,1,0,0:0:0:0:
256,184,175938,1,0,0:0:0:0:
256,184,176150,1,8,0:0:0:0:
256,184,176572,1,0,0:0:0:0:
256,184,176994,1,0,0:0:0:0:
256,184,177417,1,8,0:0:0:0:
256,184,177840,1,8,0:0:0:0:
256,184,178262,1,8,0:0:0:0:
256,184,178684,1,0,0:0:0:0:
256,184,179108,1,8,0:0:0:0:
256,184,179530,1,0,0:0:0:0:
256,184,179952,1,8,0:0:0:0:
256,184,180375,1,0,0:0:0:0:
256,184,180798,1,8,0:0:0:0:
256,184,181009,1,8,0:0:0:0:
256,184,181220,1,0,0:0:0:0:
256,184,181643,1,8,0:0:0:0:
256,184,182065,1,0,0:0:0:0:
256,184,182488,1,8,0:0:0:0:
256,184,182910,1,4,0:0:0:0:
256,184,183332,1,0,0:0:0:0:
256,184,183756,1,8,0:0:0:0:
256,184,184178,1,8,0:0:0:0:
256,184,184389,1,0,0:0:0:0:
256,184,184495,1,8,0:0:0:0:
256,184,184600,1,0,0:0:0:0:
256,184,185023,1,0,0:0:0:0:
256,184,185446,1,8,0:0:0:0:
256,184,185868,1,8,0:0:0:0:
256,184,186291,1,0,0:0:0:0:
256,184,186712,1,8,0:0:0:0:
256,184,187135,1,8,0:0:0:0:
256,184,187557,1,0,0:0:0:0:
256,184,187980,1,8,0:0:0:0:
256,184,188403,1,0,0:0:0:0:
256,184,188825,1,8,0:0:0:0:
256,184,189247,1,8,0:0:0:0:
256,184,189459,1,0,0:0:0:0:
256,184,189670,1,8,0:0:0:0:
256,184,190092,1,0,0:0:0:0:
256,184,190515,1,0,0:0:0:0:
256,184,190938,1,8,0:0:0:0:
256,184,191149,1,0,0:0:0:0:
256,184,191360,1,8,0:0:0:0:
256,184,191783,1,0,0:0:0:0:
248,184,191994,1,0,0:0:0:0:
256,184,192205,1,8,0:0:0:0:
256,184,192416,1,0,0:0:0:0:
256,184,192628,1,8,0:0:0:0:
256,184,192839,1,8,0:0:0:0:
256,184,193050,1,0,0:0:0:0:
256,184,193157,1,0,0:0:0:0:
248,184,193261,1,0,0:0:0:0:
256,184,193473,1,0,0:0:0:0:
256,192,193579,1,0,0:0:0:0:
256,184,193684,1,8,0:0:0:0:
256,184,193895,1,0,0:0:0:0:
256,184,194107,1,8,0:0:0:0:
256,184,194318,1,8,0:0:0:0:
248,184,194529,1,0,0:0:0:0:
256,184,194741,1,8,0:0:0:0:
256,184,194953,1,8,0:0:0:0:
256,184,195058,1,0,0:0:0:0:
256,192,195164,1,8,0:0:0:0:
256,184,195375,1,0,0:0:0:0:
256,184,195586,1,0,0:0:0:0:
256,184,195798,1,0,0:0:0:0:
256,184,195903,1,0,0:0:0:0:
256,192,196009,1,8,0:0:0:0:
256,184,196220,1,0,0:0:0:0:
248,184,196432,5,0,0:0:0:0:
248,184,196643,1,0,0:0:0:0:
248,176,196748,1,8,0:0:0:0:
248,184,196854,1,8,0:0:0:0:
248,184,197064,1,0,0:0:0:0:
248,184,197170,1,0,0:0:0:0:
248,184,197381,1,0,0:0:0:0:
248,176,197488,1,0,0:0:0:0:
248,184,197699,1,8,0:0:0:0:
248,176,198122,1,4,0:0:0:0:
248,176,198333,1,8,0:0:0:0:
248,176,198439,1,8,0:0:0:0:
248,176,198544,1,0,0:0:0:0:
248,176,198755,1,8,0:0:0:0:
248,176,198967,1,0,0:0:0:0:
248,176,199178,1,8,0:0:0:0:
248,176,199389,1,8,0:0:0:0:
248,176,199495,1,0,0:0:0:0:
248,176,199600,1,8,0:0:0:0:
248,176,199706,1,0,0:0:0:0:
248,176,199812,1,8,0:0:0:0:
248,176,200024,1,8,0:0:0:0:
248,176,200130,1,8,0:0:0:0:
248,176,200235,1,0,0:0:0:0:
248,176,200445,1,8,0:0:0:0:
248,176,200658,1,0,0:0:0:0:
248,176,200763,1,0,0:0:0:0:
248,176,200868,1,8,0:0:0:0:
248,176,201080,1,0,0:0:0:0:
248,176,201292,1,8,0:0:0:0:
248,176,201503,1,0,0:0:0:0:
248,176,201714,1,0,0:0:0:0:
248,176,201820,1,8,0:0:0:0:
248,176,201925,1,0,0:0:0:0:
248,176,202136,1,8,0:0:0:0:
240,176,202347,1,0,0:0:0:0:
240,176,202558,1,8,0:0:0:0:
240,176,202770,1,0,0:0:0:0:
248,176,202982,1,8,0:0:0:0:
240,176,203086,1,8,0:0:0:0:
248,176,203193,1,0,0:0:0:0:
224,184,203404,1,8,0:0:0:0:
224,184,203509,1,0,0:0:0:0:
224,184,203615,1,0,0:0:0:0:
256,192,203720,1,0,0:0:0:0:
224,184,203827,1,8,0:0:0:0:
224,184,204038,1,0,0:0:0:0:
224,184,204248,1,8,0:0:0:0:
224,184,204460,1,8,0:0:0:0:
224,184,204671,1,8,0:0:0:0:
224,184,204776,1,8,0:0:0:0:
224,184,204883,1,0,0:0:0:0:
248,192,205094,1,8,0:0:0:0:
248,192,205200,1,8,0:0:0:0:
248,192,205306,1,0,0:0:0:0:
248,192,205411,1,0,0:0:0:0:
248,192,205517,1,8,0:0:0:0:
248,192,205728,1,0,0:0:0:0:
248,192,205939,1,8,0:0:0:0:
248,192,206151,1,0,0:0:0:0:
248,192,206362,1,8,0:0:0:0:
248,192,206468,1,8,0:0:0:0:
248,192,206573,1,0,0:0:0:0:
248,192,206783,1,0,0:0:0:0:
248,192,206890,1,8,0:0:0:0:
248,192,206996,1,0,0:0:0:0:
248,192,207101,1,0,0:0:0:0:
248,192,207207,1,8,0:0:0:0:
248,192,207418,1,0,0:0:0:0:
248,192,207630,1,8,0:0:0:0:
248,192,207841,1,8,0:0:0:0:
248,192,208052,1,8,0:0:0:0:
248,192,208158,1,8,0:0:0:0:
248,192,208263,1,0,0:0:0:0:
248,192,208475,1,0,0:0:0:0:
248,192,208579,1,8,0:0:0:0:
248,192,208686,1,8,0:0:0:0:
248,192,208792,1,0,0:0:0:0:
248,192,208897,1,8,0:0:0:0:
248,192,209107,1,0,0:0:0:0:
248,192,209320,1,8,0:0:0:0:
248,192,209531,1,0,0:0:0:0:
248,192,209742,1,0,0:0:0:0:
256,192,209847,1,0,0:0:0:0:
248,192,209952,1,8,0:0:0:0:
248,192,210165,1,0,0:0:0:0:
248,192,210270,1,8,0:0:0:0:
248,192,210376,1,0,0:0:0:0:
248,192,210481,1,0,0:0:0:0:
248,192,210587,1,8,0:0:0:0:
248,192,210799,1,0,0:0:0:0:
248,192,211010,1,8,0:0:0:0:
248,192,211221,1,0,0:0:0:0:
248,192,211431,1,0,0:0:0:0:
248,192,211644,1,8,0:0:0:0:
248,192,211855,1,0,0:0:0:0:
248,192,211961,1,0,0:0:0:0:
248,192,212066,1,8,0:0:0:0:
248,192,212276,1,8,0:0:0:0:
248,192,212489,1,0,0:0:0:0:
248,192,212700,1,0,0:0:0:0:
248,192,212806,1,0,0:0:0:0:
248,192,212911,1,0,0:0:0:0:
248,192,213123,1,8,0:0:0:0:
248,192,213334,1,0,0:0:0:0:
248,192,213545,1,8,0:0:0:0:
248,192,213651,1,8,0:0:0:0:
248,192,213756,1,0,0:0:0:0:
248,192,213968,1,0,0:0:0:0:
248,192,214072,1,0,0:0:0:0:
248,192,214179,1,8,0:0:0:0:
248,192,214283,1,0,0:0:0:0:
248,192,214390,1,8,0:0:0:0:
248,192,214496,1,8,0:0:0:0:
248,192,214601,1,0,0:0:0:0:
248,192,214813,1,8,0:0:0:0:
248,192,215024,1,0,0:0:0:0:
248,192,215235,1,8,0:0:0:0:
248,192,215340,1,8,0:0:0:0:
248,192,215445,1,0,0:0:0:0:
248,192,215658,1,0,0:0:0:0:
248,192,215762,1,0,0:0:0:0:
248,192,215869,1,8,0:0:0:0:
248,192,215975,1,8,0:0:0:0:
248,192,216079,1,8,0:0:0:0:
248,192,216186,1,8,0:0:0:0:
248,192,216292,1,0,0:0:0:0:
248,192,216503,1,8,0:0:0:0:
248,192,216714,1,0,0:0:0:0:
248,192,216925,1,8,0:0:0:0:
248,192,217031,1,8,0:0:0:0:
248,192,217137,1,0,0:0:0:0:
248,192,217348,1,0,0:0:0:0:
248,200,217453,1,0,0:0:0:0:
248,192,217559,1,8,0:0:0:0:
248,200,217665,1,8,0:0:0:0:
240,200,217770,1,0,0:0:0:0:
240,200,217876,1,8,0:0:0:0:
248,200,217982,1,0,0:0:0:0:
240,200,218193,1,8,0:0:0:0:
240,200,218404,1,0,0:0:0:0:
240,208,218510,1,0,0:0:0:0:
240,208,218614,1,0,0:0:0:0:
240,208,218721,1,0,0:0:0:0:
240,208,218827,1,8,0:0:0:0:
240,208,219038,1,0,0:0:0:0:
240,208,219144,1,0,0:0:0:0:
240,208,219249,1,0,0:0:0:0:
240,208,219355,1,8,0:0:0:0:
240,208,219461,1,0,0:0:0:0:
240,208,219566,1,0,0:0:0:0:
240,208,219672,1,8,0:0:0:0:
232,208,219883,1,8,0:0:0:0:
240,208,220094,1,0,0:0:0:0:
240,208,220200,1,8,0:0:0:0:
240,208,220306,1,8,0:0:0:0:
240,208,220411,1,0,0:0:0:0:
240,208,220517,1,8,0:0:0:0:
240,208,220728,1,0,0:0:0:0:
240,208,220834,1,0,0:0:0:0:
240,208,220938,1,0,0:0:0:0:
240,208,221045,1,8,0:0:0:0:
240,208,221151,1,8,0:0:0:0:
232,208,221256,1,0,0:0:0:0:
232,208,221362,1,8,0:0:0:0:
232,208,221573,1,8,0:0:0:0:
256,192,221783,1,0,0:0:0:0:
256,192,221890,1,0,0:0:0:0:
256,192,221996,1,8,0:0:0:0:
256,192,222101,1,8,0:0:0:0:
256,192,222207,1,0,0:0:0:0:
256,192,222418,1,0,0:0:0:0:
256,192,222524,1,0,0:0:0:0:
256,192,222630,1,0,0:0:0:0:
256,192,222735,1,8,0:0:0:0:
256,192,222840,1,8,0:0:0:0:
256,192,222946,1,8,0:0:0:0:
256,192,223052,1,0,0:0:0:0:
256,192,223263,1,0,0:0:0:0:
256,192,223475,1,0,0:0:0:0:
256,192,223580,1,0,0:0:0:0:
256,192,223686,1,0,0:0:0:0:
256,192,223792,1,0,0:0:0:0:
256,192,223897,1,8,0:0:0:0:
256,192,224003,1,8,0:0:0:0:
256,192,224107,1,8,0:0:0:0:
256,192,224214,1,8,0:0:0:0:
256,192,224320,1,0,0:0:0:0:
256,192,224425,1,8,0:0:0:0:
256,192,224531,1,0,0:0:0:0:
256,192,224637,1,8,0:0:0:0:
256,192,224742,1,0,0:0:0:0:
256,192,224952,1,0,0:0:0:0:
256,192,225165,1,4,0:0:0:0:
256,192,225376,1,0,0:0:0:0:
256,192,225482,1,0,0:0:0:0:
256,192,225587,1,8,0:0:0:0:
256,192,225799,1,8,0:0:0:0:
256,192,226010,1,0,0:0:0:0:
248,200,226221,1,0,0:0:0:0:
248,200,226432,1,8,0:0:0:0:
248,200,226644,1,8,0:0:0:0:
248,200,226855,1,0,0:0:0:0:
248,200,227066,1,0,0:0:0:0:
256,192,227276,1,0,0:0:0:0:
256,192,227418,1,8,0:0:0:0:
256,192,227559,1,8,0:0:0:0:
256,192,227700,1,0,0:0:0:0:
248,200,227911,1,8,0:0:0:0:
248,200,228017,1,0,0:0:0:0:
248,200,228123,1,0,0:0:0:0:
248,200,228334,1,0,0:0:0:0:
248,200,228545,1,8,0:0:0:0:
248,208,228756,1,8,0:0:0:0:
248,208,228862,1,8,0:0:0:0:
248,208,228968,1,8,0:0:0:0:
248,208,229179,1,8,0:0:0:0:
248,208,229390,1,0,0:0:0:0:
248,208,229601,1,0,0:0:0:0:
248,208,229707,1,0,0:0:0:0:
248,208,229813,1,8,0:0:0:0:
248,208,230024,1,8,0:0:0:0:
248,208,230235,1,0,0:0:0:0:
248,208,230445,1,0,0:0:0:0:
248,208,230658,1,0,0:0:0:0:
248,208,230799,1,8,0:0:0:0:
248,208,230938,1,8,0:0:0:0:
248,208,231080,1,0,0:0:0:0:
248,208,231221,1,8,0:0:0:0:
248,208,231362,1,8,0:0:0:0:
248,208,231503,1,0,0:0:0:0:
248,208,231714,1,8,0:0:0:0:
248,208,231925,1,0,0:0:0:0:
248,200,232137,1,8,0:0:0:0:
248,200,232242,1,8,0:0:0:0:
248,200,232348,1,0,0:0:0:0:
248,200,232559,1,8,0:0:0:0:
248,200,232770,1,0,0:0:0:0:
248,200,232982,1,0,0:0:0:0:
248,200,233193,1,8,0:0:0:0:
248,208,233298,1,0,0:0:0:0:
248,200,233404,1,0,0:0:0:0:
248,200,233510,1,0,0:0:0:0:
248,200,233614,1,8,0:0:0:0:
248,200,233827,1,0,0:0:0:0:
248,200,234038,1,8,0:0:0:0:
248,200,234144,1,8,0:0:0:0:
248,200,234249,1,0,0:0:0:0:
248,208,234461,1,0,0:0:0:0:
248,208,234672,1,0,0:0:0:0:
248,208,234883,1,8,0:0:0:0:
248,208,235094,1,0,0:0:0:0:
248,208,235306,1,8,0:0:0:0:
248,208,235517,1,0,0:0:0:0:
248,208,235622,1,0,0:0:0:0:
248,208,235728,1,8,0:0:0:0:
248,208,235938,1,0,0:0:0:0:
248,208,236151,1,0,0:0:0:0:
248,208,236362,1,0,0:0:0:0:
248,216,236467,1,0,0:0:0:0:
248,208,236573,1,8,0:0:0:0:
248,208,236714,1,0,0:0:0:0:
248,208,236855,1,0,0:0:0:0:
248,208,236996,1,8,0:0:0:0:
248,208,237207,1,0,0:0:0:0:
248,208,237418,1,0,0:0:0:0:
248,208,237524,1,0,0:0:0:0:
248,208,237630,1,0,0:0:0:0:
248,208,237735,1,0,0:0:0:0:
248,208,237841,1,8,0:0:0:0:
248,208,237945,1,0,0:0:0:0:
248,208,238052,1,8,0:0:0:0:
248,208,238158,1,0,0:0:0:0:
248,208,238263,1,8,0:0:0:0:
248,208,238369,1,8,0:0:0:0:
248,208,238475,1,0,0:0:0:0:
248,208,238580,1,0,0:0:0:0:
248,208,238686,1,8,0:0:0:0:
248,216,238897,1,8,0:0:0:0:
248,208,239003,1,0,0:0:0:0:
248,208,239107,1,8,0:0:0:0:
248,208,239320,1,8,0:0:0:0:
248,216,239531,1,8,0:0:0:0:
248,216,239742,1,0,0:0:0:0:
248,216,239848,1,0,0:0:0:0:
248,216,239952,1,8,0:0:0:0:
248,216,240165,1,8,0:0:0:0:
248,216,240376,1,0,0:0:0:0:
248,216,240587,1,0,0:0:0:0:
256,192,240799,1,8,0:0:0:0:
256,192,240938,1,8,0:0:0:0:
256,192,241080,1,8,0:0:0:0:
256,192,241221,1,0,0:0:0:0:
256,208,241432,1,8,0:0:0:0:
256,208,241538,1,8,0:0:0:0:
256,208,241644,1,0,0:0:0:0:
256,208,241855,1,0,0:0:0:0:
256,208,242066,1,8,0:0:0:0:
256,208,242277,1,8,0:0:0:0:
256,208,242489,1,0,0:0:0:0:
256,208,242593,1,8,0:0:0:0:
256,208,242700,1,8,0:0:0:0:
256,208,242806,1,8,0:0:0:0:
256,208,242911,1,0,0:0:0:0:
256,216,243123,1,8,0:0:0:0:
256,216,243334,1,0,0:0:0:0:
248,216,243438,1,0,0:0:0:0:
248,216,243545,1,0,0:0:0:0:
256,216,243650,1,8,0:0:0:0:
248,216,243756,1,8,0:0:0:0:
248,216,243968,1,0,0:0:0:0:
248,216,244179,1,8,0:0:0:0:
248,216,244320,1,0,0:0:0:0:
248,216,244461,1,0,0:0:0:0:
248,216,244601,1,8,0:0:0:0:
248,216,244742,1,0,0:0:0:0:
248,216,244883,1,0,0:0:0:0:
248,216,245024,1,8,0:0:0:0:
248,216,245234,1,0,0:0:0:0:
248,216,245445,1,0,0:0:0:0:
248,216,245658,1,0,0:0:0:0:
248,216,245763,1,0,0:0:0:0:
248,216,245869,1,8,0:0:0:0:
248,216,246080,1,8,0:0:0:0:
240,216,246292,1,0,0:0:0:0:
240,216,246502,1,8,0:0:0:0:
248,224,246608,1,8,0:0:0:0:
240,216,246714,1,0,0:0:0:0:
240,216,246925,1,0,0:0:0:0:
240,216,247137,1,8,0:0:0:0:
240,216,247348,1,0,0:0:0:0:
264,184,247559,1,8,0:0:0:0:
264,184,247700,1,8,0:0:0:0:
264,184,247841,1,8,0:0:0:0:
264,184,247982,1,0,0:0:0:0:
240,216,248193,1,8,0:0:0:0:
240,216,248404,1,0,0:0:0:0:
240,216,248614,1,0,0:0:0:0:
240,216,248827,1,8,0:0:0:0:
248,208,249038,1,0,0:0:0:0:
248,200,249144,1,0,0:0:0:0:
248,200,249249,1,8,0:0:0:0:
248,200,249461,1,8,0:0:0:0:
248,200,249672,1,0,0:0:0:0:
248,200,249883,1,8,0:0:0:0:
248,200,250094,1,8,0:0:0:0:
248,200,250306,1,0,0:0:0:0:
248,200,250517,1,8,0:0:0:0:
248,200,250728,1,0,0:0:0:0:
248,200,250938,1,8,0:0:0:0:
248,200,251151,1,8,0:0:0:0:
248,200,251362,1,0,0:0:0:0:
248,200,251573,1,0,0:0:0:0:
248,200,251783,1,8,0:0:0:0:
248,200,251996,1,0,0:0:0:0:
192,224,252206,2,0,L|336:160,3,140,,,0:0:0:0:
256,192,253686,1,0,0:0:0:0:
256,192,253897,1,12,0:0:0:0:
256,192,254318,1,8,0:0:0:0:
256,192,254742,1,8,0:0:0:0:
256,192,255163,1,0,0:0:0:0:
256,192,255374,1,8,0:0:0:0:
256,192,255587,1,0,0:0:0:0:
256,184,256009,1,0,0:0:0:0:
256,184,256432,1,0,0:0:0:0:
256,184,256853,1,0,0:0:0:0:
256,184,257065,1,0,0:0:0:0:
256,184,257276,1,8,0:0:0:0:
256,184,257698,1,0,0:0:0:0:
256,184,257911,1,8,0:0:0:0:
256,184,258121,1,8,0:0:0:0:
256,184,258332,1,0,0:0:0:0:
256,184,258404,1,8,0:0:0:0:
256,184,258473,1,8,0:0:0:0:
256,184,258543,1,0,0:0:0:0:
256,184,258756,1,8,0:0:0:0:
256,184,258966,1,8,0:0:0:0:
256,176,259388,1,8,0:0:0:0:
256,176,259601,1,0,0:0:0:0:
256,176,259811,1,8,0:0:0:0:
256,176,260235,1,0,0:0:0:0:
256,176,260656,1,8,0:0:0:0:
256,176,261080,1,8,0:0:0:0:
256,176,261501,1,8,0:0:0:0:
256,176,261925,1,0,0:0:0:0:
256,176,262135,1,8,0:0:0:0:
256,176,262346,1,0,0:0:0:0:
256,176,262770,1,0,0:0:0:0:
256,176,263191,1,0,0:0:0:0:
256,176,263614,1,0,0:0:0:0:
256,176,263825,1,0,0:0:0:0:
256,176,264036,1,8,0:0:0:0:
256,176,264459,1,0,0:0:0:0:
256,176,264670,1,8,0:0:0:0:
256,176,264881,1,8,0:0:0:0:
373,159,265094,1,0,0:0:0:0:
373,159,265163,1,8,0:0:0:0:
373,159,265235,1,8,0:0:0:0:
373,159,265304,1,0,0:0:0:0:
256,176,265515,1,8,0:0:0:0:
256,176,265726,1,8,0:0:0:0:
256,176,266149,1,8,0:0:0:0:
256,176,266360,1,0,0:0:0:0:
256,176,266573,1,8,0:0:0:0:
256,176,266783,1,0,0:0:0:0:
256,176,266888,1,0,0:0:0:0:
256,176,266994,1,0,0:0:0:0:
256,176,267205,1,8,0:0:0:0:
256,176,267417,1,0,0:0:0:0:
248,176,267557,1,0,0:0:0:0:
256,176,267698,1,0,0:0:0:0:
256,176,267839,1,8,0:0:0:0:
256,176,268051,1,0,0:0:0:0:
256,176,268263,1,8,0:0:0:0:
256,176,268473,1,0,0:0:0:0:
256,176,268684,1,0,0:0:0:0:
256,176,268897,1,8,0:0:0:0:
256,176,269107,1,0,0:0:0:0:
256,176,269319,1,0,0:0:0:0:
256,176,269424,1,0,0:0:0:0:
256,176,269529,1,0,0:0:0:0:
256,176,269742,1,8,0:0:0:0:
256,176,269953,1,0,0:0:0:0:
256,168,270163,1,0,0:0:0:0:
256,168,270270,1,0,0:0:0:0:
256,168,270374,1,0,0:0:0:0:
256,168,270587,1,8,0:0:0:0:
256,168,270797,1,0,0:0:0:0:
256,168,271008,1,8,0:0:0:0:
256,168,271114,1,0,0:0:0:0:
256,168,271219,1,0,0:0:0:0:
256,168,271432,1,0,0:0:0:0:
256,168,271642,1,8,0:0:0:0:
352,192,271853,1,8,0:0:0:0:
352,192,271925,1,8,0:0:0:0:
352,192,271994,1,8,0:0:0:0:
352,192,272066,1,0,0:0:0:0:
256,168,272276,1,8,0:0:0:0:
256,168,272487,1,8,0:0:0:0:
264,160,272911,1,8,0:0:0:0:
264,160,273121,1,0,0:0:0:0:
256,168,273226,1,0,0:0:0:0:
264,160,273332,1,8,0:0:0:0:
264,160,273543,1,0,0:0:0:0:
264,160,273649,1,0,0:0:0:0:
264,160,273756,1,0,0:0:0:0:
264,160,273966,1,8,0:0:0:0:
264,160,274177,1,0,0:0:0:0:
264,160,274389,1,0,0:0:0:0:
264,160,274601,1,8,0:0:0:0:
264,160,274811,1,0,0:0:0:0:
264,160,275022,1,8,0:0:0:0:
264,160,275234,1,0,0:0:0:0:
264,160,275446,1,0,0:0:0:0:
264,160,275656,1,8,0:0:0:0:
264,160,275867,1,0,0:0:0:0:
264,160,276080,1,8,0:0:0:0:
264,160,276185,1,0,0:0:0:0:
264,160,276290,1,0,0:0:0:0:
264,160,276501,1,0,0:0:0:0:
264,160,276713,1,8,0:0:0:0:
264,160,276925,1,0,0:0:0:0:
264,160,277135,1,0,0:0:0:0:
264,160,277346,1,8,0:0:0:0:
264,160,277557,1,0,0:0:0:0:
264,160,277770,1,0,0:0:0:0:
264,160,277874,1,0,0:0:0:0:
264,160,277980,1,0,0:0:0:0:
264,160,278192,1,0,0:0:0:0:
264,160,278404,1,8,0:0:0:0:
256,176,278614,1,8,0:0:0:0:
264,160,278685,1,8,0:0:0:0:
264,160,278755,1,8,0:0:0:0:
256,176,278825,1,0,0:0:0:0:
264,160,279036,1,8,0:0:0:0:
264,160,279249,1,8,0:0:0:0:
264,160,279459,1,0,0:0:0:0:
264,160,279670,1,0,0:0:0:0:
264,160,279881,1,0,0:0:0:0:
264,160,280094,1,8,0:0:0:0:
264,160,280304,1,8,0:0:0:0:
264,160,280515,1,8,0:0:0:0:
264,160,280726,1,8,0:0:0:0:
264,160,280938,1,0,0:0:0:0:
264,160,281044,1,0,0:0:0:0:
264,160,281149,1,0,0:0:0:0:
264,160,281255,1,0,0:0:0:0:
264,160,281360,1,8,0:0:0:0:
264,160,281501,1,0,0:0:0:0:
264,160,281642,1,0,0:0:0:0:
256,192,281783,1,8,0:0:0:0:
256,192,281925,1,0,0:0:0:0:
256,192,282066,1,0,0:0:0:0:
256,192,282205,1,8,0:0:0:0:
256,192,282346,1,0,0:0:0:0:
256,192,282487,1,8,0:0:0:0:
256,192,282628,1,0,0:0:0:0:
256,192,282735,1,0,0:0:0:0:
256,192,282839,1,8,0:0:0:0:
256,192,282945,1,0,0:0:0:0:
256,192,283050,1,0,0:0:0:0:
256,192,283156,1,8,0:0:0:0:
256,192,283263,1,0,0:0:0:0:
256,192,283367,1,0,0:0:0:0:
256,192,283473,1,8,0:0:0:0:
256,192,283580,1,0,0:0:0:0:
256,192,283684,1,0,0:0:0:0:
256,192,283790,1,8,0:0:0:0:
256,192,283897,1,0,0:0:0:0:
256,192,284001,1,0,0:0:0:0:
256,192,284107,1,8,0:0:0:0:
256,192,284178,1,8,0:0:0:0:
256,192,284248,1,8,0:0:0:0:
256,192,284319,1,8,0:0:0:0:
256,192,284529,5,0,0:0:0:0:
256,192,284634,1,0,0:0:0:0:
256,192,284740,1,8,0:0:0:0:
256,192,284951,1,0,0:0:0:0:
264,184,285163,1,8,0:0:0:0:
256,192,285374,1,0,0:0:0:0:
256,192,285479,1,0,0:0:0:0:
256,192,285585,1,8,0:0:0:0:
256,192,285796,1,0,0:0:0:0:
256,192,286008,1,8,0:0:0:0:
256,192,286219,1,0,0:0:0:0:
256,192,286325,1,0,0:0:0:0:
256,192,286430,1,8,0:0:0:0:
256,192,286641,1,0,0:0:0:0:
256,192,286852,1,8,0:0:0:0:
256,192,287065,1,8,0:0:0:0:
256,192,287170,1,0,0:0:0:0:
256,192,287275,1,8,0:0:0:0:
256,192,287487,1,0,0:0:0:0:
256,192,287699,1,8,0:0:0:0:
256,192,287910,1,8,0:0:0:0:
256,192,288016,1,0,0:0:0:0:
256,192,288121,1,8,0:0:0:0:
256,192,288332,1,0,0:0:0:0:
256,192,288543,1,8,0:0:0:0:
256,192,288754,1,8,0:0:0:0:
256,192,288860,1,0,0:0:0:0:
256,192,288965,1,8,0:0:0:0:
256,192,289177,1,0,0:0:0:0:
256,192,289388,1,8,0:0:0:0:
256,192,289599,1,8,0:0:0:0:
256,192,289705,1,0,0:0:0:0:
256,192,289810,1,8,0:0:0:0:
256,192,290022,1,0,0:0:0:0:
256,192,290233,1,8,0:0:0:0:
256,192,290444,1,0,0:0:0:0:
256,192,290550,1,8,0:0:0:0:
256,192,290656,1,8,0:0:0:0:
256,192,290868,1,0,0:0:0:0:
256,192,291079,1,8,0:0:0:0:
256,192,291289,1,0,0:0:0:0:
256,192,291396,1,8,0:0:0:0:
256,192,291501,1,8,0:0:0:0:
256,192,291713,1,0,0:0:0:0:
256,192,291924,1,8,0:0:0:0:
256,192,292134,1,0,0:0:0:0:
256,192,292241,1,8,0:0:0:0:
256,192,292346,1,8,0:0:0:0:
256,192,292558,1,0,0:0:0:0:
256,192,292769,1,8,0:0:0:0:
256,192,292979,1,0,0:0:0:0:
256,192,293085,1,8,0:0:0:0:
256,192,293191,1,8,0:0:0:0:
256,192,293403,1,0,0:0:0:0:
256,192,293613,1,8,0:0:0:0:
256,192,293825,1,8,0:0:0:0:
256,192,293931,1,8,0:0:0:0:
256,192,294036,1,8,0:0:0:0:
256,192,294248,1,0,0:0:0:0:
256,192,294458,1,8,0:0:0:0:
256,192,294671,1,8,0:0:0:0:
256,192,294775,1,8,0:0:0:0:
256,192,294882,1,8,0:0:0:0:
256,192,295093,1,0,0:0:0:0:
256,192,295303,1,8,0:0:0:0:
256,192,295515,1,8,0:0:0:0:
256,192,295620,1,8,0:0:0:0:
256,192,295726,1,8,0:0:0:0:
256,192,295937,1,0,0:0:0:0:
256,192,296148,1,8,0:0:0:0:
256,192,296360,1,0,0:0:0:0:
256,192,296465,1,0,0:0:0:0:
256,192,296572,1,8,0:0:0:0:
256,192,296782,1,0,0:0:0:0:
256,192,296889,1,8,0:0:0:0:
256,192,296994,1,8,0:0:0:0:
264,184,297205,1,8,0:0:0:0:
256,192,297310,1,0,0:0:0:0:
256,192,297417,1,8,0:0:0:0:
256,192,297627,1,8,0:0:0:0:
264,184,297839,1,4,0:0:0:0:
256,192,298050,1,8,0:0:0:0:
248,192,298157,1,8,0:0:0:0:
248,192,298262,1,0,0:0:0:0:
256,192,298472,1,8,0:0:0:0:
256,192,298684,1,0,0:0:0:0:
256,192,298895,1,8,0:0:0:0:
256,192,299002,1,8,0:0:0:0:
256,184,299106,1,0,0:0:0:0:
256,192,299318,1,8,0:0:0:0:
256,192,299530,1,0,0:0:0:0:
256,192,299741,1,8,0:0:0:0:
256,192,299847,1,8,0:0:0:0:
256,192,299951,1,0,0:0:0:0:
256,192,300164,1,8,0:0:0:0:
264,184,300374,1,0,0:0:0:0:
256,192,300586,1,8,0:0:0:0:
256,192,300692,1,0,0:0:0:0:
256,192,300796,1,0,0:0:0:0:
256,192,301009,1,8,0:0:0:0:
256,192,301220,1,0,0:0:0:0:
256,192,301430,1,8,0:0:0:0:
256,192,301536,1,0,0:0:0:0:
264,184,301641,1,0,0:0:0:0:
256,192,301854,1,8,0:0:0:0:
256,192,302065,1,0,0:0:0:0:
256,192,302275,1,8,0:0:0:0:
256,192,302381,1,0,0:0:0:0:
256,192,302488,1,0,0:0:0:0:
256,192,302699,1,8,0:0:0:0:
256,192,302910,1,0,0:0:0:0:
256,192,303120,1,8,0:0:0:0:
256,192,303226,1,8,0:0:0:0:
256,192,303333,1,0,0:0:0:0:
256,192,303544,1,8,0:0:0:0:
256,192,303755,1,0,0:0:0:0:
256,192,303966,1,8,0:0:0:0:
256,192,304072,1,0,0:0:0:0:
256,192,304177,1,0,0:0:0:0:
256,192,304389,1,0,0:0:0:0:
256,192,304600,1,8,0:0:0:0:
256,192,304706,1,0,0:0:0:0:
256,192,304810,1,0,0:0:0:0:
256,192,304917,1,0,0:0:0:0:
256,192,305022,1,8,0:0:0:0:
256,192,305127,1,0,0:0:0:0:
256,192,305233,1,8,0:0:0:0:
264,184,305340,1,8,0:0:0:0:
264,184,305444,1,8,0:0:0:0:
256,192,305551,1,0,0:0:0:0:
256,192,305656,1,0,0:0:0:0:
256,192,305762,1,0,0:0:0:0:
256,192,305867,1,8,0:0:0:0:
256,192,306079,1,0,0:0:0:0:
256,192,306289,1,8,0:0:0:0:
256,192,306396,1,0,0:0:0:0:
256,192,306501,1,0,0:0:0:0:
256,192,306606,1,8,0:0:0:0:
264,184,306712,1,8,0:0:0:0:
256,192,306819,1,0,0:0:0:0:
256,192,306923,1,0,0:0:0:0:
256,192,307029,1,0,0:0:0:0:
256,192,307134,1,8,0:0:0:0:
256,192,307241,1,0,0:0:0:0:
256,192,307346,1,0,0:0:0:0:
256,192,307451,1,0,0:0:0:0:
256,192,307558,1,8,0:0:0:0:
256,192,307768,1,0,0:0:0:0:
256,192,307979,1,8,0:0:0:0:
256,192,308085,1,8,0:0:0:0:
256,192,308191,1,0,0:0:0:0:
256,192,308296,1,0,0:0:0:0:
256,192,308402,1,8,0:0:0:0:
256,192,308508,1,0,0:0:0:0:
256,192,308613,1,0,0:0:0:0:
256,192,308720,1,0,0:0:0:0:
256,192,308825,1,8,0:0:0:0:
256,192,308930,1,0,0:0:0:0:
256,192,309036,1,0,0:0:0:0:
256,192,309141,1,0,0:0:0:0:
256,192,309248,1,8,0:0:0:0:
256,192,309353,1,0,0:0:0:0:
256,192,309458,1,0,0:0:0:0:
256,192,309564,1,0,0:0:0:0:
256,192,309670,1,8,0:0:0:0:
256,192,310092,5,8,0:0:0:0:
256,192,310303,1,0,0:0:0:0:
256,192,310515,1,8,0:0:0:0:
256,192,310726,1,0,0:0:0:0:
328,64,310937,1,8,0:0:0:0:
328,64,311007,1,8,0:0:0:0:
328,64,311079,1,8,0:0:0:0:
328,64,311148,1,0,0:0:0:0:
256,192,311360,5,12,0:0:0:0:
256,192,311572,1,0,0:0:0:0:
256,192,311678,1,0,0:0:0:0:
256,192,311782,1,8,0:0:0:0:
256,192,311995,1,0,0:0:0:0:
256,192,312206,1,8,0:0:0:0:
256,192,312417,1,0,0:0:0:0:
256,192,312523,1,0,0:0:0:0:
256,192,312627,1,0,0:0:0:0:
256,192,312840,1,8,0:0:0:0:
256,192,313051,1,0,0:0:0:0:
256,192,313262,1,8,0:0:0:0:
256,192,313368,1,8,0:0:0:0:
256,192,313472,1,0,0:0:0:0:
256,192,313685,1,8,0:0:0:0:
256,192,313896,1,0,0:0:0:0:
256,192,314106,1,0,0:0:0:0:
256,192,314213,1,0,0:0:0:0:
256,192,314319,1,8,0:0:0:0:
256,192,314530,1,0,0:0:0:0:
256,192,314741,1,8,0:0:0:0:
256,192,314951,1,0,0:0:0:0:
256,192,315164,1,0,0:0:0:0:
256,192,315375,1,8,0:0:0:0:
256,192,315586,1,8,0:0:0:0:
64,248,315796,1,8,0:0:0:0:
64,248,315868,1,8,0:0:0:0:
64,248,315937,1,8,0:0:0:0:
64,248,316009,1,0,0:0:0:0:
256,192,316220,1,8,0:0:0:0:
256,192,316431,1,8,0:0:0:0:
256,192,316641,1,0,0:0:0:0:
256,192,316748,1,0,0:0:0:0:
256,192,316854,1,8,0:0:0:0:
256,192,317065,1,0,0:0:0:0:
256,192,317275,1,8,0:0:0:0:
256,192,317699,1,0,0:0:0:0:
256,192,317910,1,8,0:0:0:0:
256,192,318120,1,8,0:0:0:0:
256,192,318333,1,0,0:0:0:0:
256,192,318437,1,0,0:0:0:0:
256,192,318544,1,8,0:0:0:0:
256,192,318755,1,0,0:0:0:0:
256,192,318965,1,8,0:0:0:0:
256,192,319178,1,0,0:0:0:0:
256,192,319282,1,0,0:0:0:0:
256,184,319389,1,8,0:0:0:0:
256,184,319600,1,8,0:0:0:0:
256,184,319810,1,0,0:0:0:0:
256,184,320023,1,8,0:0:0:0:
256,184,320127,1,8,0:0:0:0:
256,184,320234,1,0,0:0:0:0:
256,184,320444,1,8,0:0:0:0:
256,184,320657,1,0,0:0:0:0:
256,184,320868,1,0,0:0:0:0:
256,184,320972,1,0,0:0:0:0:
256,184,321079,1,8,0:0:0:0:
256,184,321289,1,0,0:0:0:0:
256,184,321502,1,8,0:0:0:0:
256,184,321713,1,0,0:0:0:0:
256,184,321924,1,0,0:0:0:0:
256,184,322134,1,8,0:0:0:0:
256,184,322347,1,8,0:0:0:0:
448,336,322558,1,8,0:0:0:0:
448,336,322627,1,8,0:0:0:0:
448,336,322699,1,8,0:0:0:0:
448,336,322769,1,0,0:0:0:0:
256,184,322979,1,8,0:0:0:0:
248,184,323192,1,8,0:0:0:0:
256,184,323613,1,8,0:0:0:0:
256,184,323826,1,0,0:0:0:0:
256,184,324037,1,8,0:0:0:0:
256,184,324248,1,0,0:0:0:0:
256,184,324458,1,0,0:0:0:0:
256,184,324671,1,8,0:0:0:0:
256,184,324882,1,8,0:0:0:0:
256,184,325093,1,0,0:0:0:0:
256,184,325199,1,0,0:0:0:0:
256,184,325303,1,8,0:0:0:0:
256,184,325516,1,0,0:0:0:0:
256,184,325727,1,8,0:0:0:0:
256,184,325937,1,0,0:0:0:0:
256,184,326044,1,0,0:0:0:0:
256,184,326148,1,8,0:0:0:0:
256,184,326361,1,8,0:0:0:0:
256,184,326572,1,0,0:0:0:0:
256,184,326782,1,8,0:0:0:0:
256,184,326889,1,0,0:0:0:0:
256,184,326995,1,0,0:0:0:0:
256,184,327206,1,8,0:0:0:0:
256,184,327417,1,0,0:0:0:0:
256,184,327627,1,0,0:0:0:0:
256,184,327734,1,0,0:0:0:0:
256,184,327840,1,8,0:0:0:0:
256,184,328051,1,0,0:0:0:0:
256,184,328262,1,8,0:0:0:0:
256,184,328472,1,0,0:0:0:0:
256,184,328685,1,0,0:0:0:0:
256,184,328896,1,8,0:0:0:0:
256,184,329106,1,8,0:0:0:0:
176,56,329319,1,8,0:0:0:0:
176,56,329389,1,8,0:0:0:0:
176,56,329458,1,8,0:0:0:0:
176,56,329530,1,0,0:0:0:0:
256,184,329741,1,8,0:0:0:0:
256,184,329951,1,8,0:0:0:0:
256,176,330375,1,0,0:0:0:0:
256,184,330586,1,0,0:0:0:0:
256,184,330796,1,8,0:0:0:0:
256,184,331009,1,8,0:0:0:0:
256,184,331113,1,0,0:0:0:0:
256,184,331220,1,8,0:0:0:0:
256,184,331326,1,0,0:0:0:0:
256,184,331431,1,0,0:0:0:0:
256,184,331537,1,0,0:0:0:0:
256,184,331641,1,8,0:0:0:0:
256,184,331854,1,0,0:0:0:0:
256,184,331958,1,0,0:0:0:0:
256,184,332065,1,8,0:0:0:0:
256,184,332275,1,0,0:0:0:0:
256,184,332382,1,0,0:0:0:0:
256,184,332488,1,8,0:0:0:0:
264,176,332699,1,0,0:0:0:0:
264,176,332803,1,0,0:0:0:0:
256,184,332910,1,8,0:0:0:0:
256,184,333016,1,0,0:0:0:0:
256,184,333120,1,8,0:0:0:0:
256,184,333227,1,0,0:0:0:0:
264,176,333333,1,0,0:0:0:0:
256,184,333544,1,8,0:0:0:0:
256,184,333648,1,8,0:0:0:0:
256,184,333755,1,0,0:0:0:0:
264,192,333965,1,8,0:0:0:0:
264,192,334072,1,8,0:0:0:0:
264,192,334178,1,0,0:0:0:0:
264,192,334389,1,8,0:0:0:0:
264,192,334495,1,8,0:0:0:0:
256,176,334600,1,0,0:0:0:0:
264,192,334706,1,0,0:0:0:0:
264,192,334810,1,8,0:0:0:0:
264,192,334917,1,8,0:0:0:0:
264,192,335023,1,0,0:0:0:0:
256,176,335234,1,0,0:0:0:0:
264,192,335340,1,0,0:0:0:0:
256,176,335444,1,0,0:0:0:0:
256,176,335657,1,8,0:0:0:0:
256,176,335868,1,8,0:0:0:0:
256,176,336079,1,0,0:0:0:0:
256,176,336148,1,8,0:0:0:0:
256,176,336220,1,8,0:0:0:0:
256,176,336289,1,0,0:0:0:0:
256,168,336502,1,8,0:0:0:0:
256,168,336713,1,8,0:0:0:0:
256,176,337134,1,0,0:0:0:0:
256,176,337347,1,0,0:0:0:0:
256,176,337558,1,8,0:0:0:0:
256,176,337769,1,8,0:0:0:0:
256,176,337979,1,0,0:0:0:0:
256,176,338192,1,8,0:0:0:0:
256,192,338403,5,0,0:0:0:0:
256,192,338509,1,0,0:0:0:0:
256,192,338613,1,8,0:0:0:0:
256,192,338720,1,0,0:0:0:0:
256,192,338826,1,0,0:0:0:0:
256,192,338931,1,8,0:0:0:0:
256,192,339037,1,8,0:0:0:0:
256,192,339248,1,12,0:0:0:0:
112,272,362909,6,0,B|83:189|125:98|209:62|285:79,1,315.000012016297,,,0:0:0:0:
256,192,364600,5,8,0:0:0:0:
264,192,365023,1,0,0:0:0:0:
256,192,365445,1,0,0:0:0:0:
264,192,365868,1,8,0:0:0:0:
256,192,366290,5,4,0:0:0:0:
264,192,367980,1,8,0:0:0:0:
264,192,368825,1,0,0:0:0:0:
264,192,369670,1,8,0:0:0:0:
264,192,371360,1,0,0:0:0:0:
264,192,372205,1,8,0:0:0:0:
264,192,373050,1,4,0:0:0:0:
264,192,374740,1,8,0:0:0:0:
264,192,375586,1,8,0:0:0:0:
264,192,376431,1,0,0:0:0:0:
264,192,378966,1,0,0:0:0:0:
264,192,379811,1,4,0:0:0:0:
264,192,381501,5,8,0:0:0:0:
264,192,381923,1,8,0:0:0:0:
264,192,382346,1,0,0:0:0:0:
264,192,382768,1,0,0:0:0:0:
264,192,383191,1,8,0:0:0:0:
264,192,384036,1,0,0:0:0:0:
264,184,384881,1,0,0:0:0:0:
264,184,385726,1,0,0:0:0:0:
264,184,386149,1,8,0:0:0:0:
264,184,386571,1,4,0:0:0:0:
264,184,388262,1,8,0:0:0:0:
264,184,389107,1,0,0:0:0:0:
264,184,389529,1,8,0:0:0:0:
264,184,389952,1,8,0:0:0:0:
256,192,391642,1,0,0:0:0:0:
256,192,392487,1,8,0:0:0:0:
264,192,393332,1,4,0:0:0:0:
264,192,395022,1,8,0:0:0:0:
256,192,395867,12,0,399670,0:0:0:0:
256,192,400093,5,12,0:0:0:0:
256,192,400516,1,8,0:0:0:0:
256,184,400727,1,0,0:0:0:0:
256,184,400939,1,0,0:0:0:0:
256,184,401150,1,8,0:0:0:0:
256,184,401361,1,0,0:0:0:0:
256,184,401572,1,8,0:0:0:0:
256,184,401994,1,8,0:0:0:0:
256,184,402205,1,0,0:0:0:0:
256,184,402416,1,8,0:0:0:0:
256,176,402628,1,8,0:0:0:0:
256,176,402839,1,0,0:0:0:0:
256,184,403050,1,8,0:0:0:0:
256,176,403473,1,8,0:0:0:0:
256,176,403684,1,0,0:0:0:0:
256,176,403895,1,8,0:0:0:0:
256,176,404107,1,0,0:0:0:0:
256,176,404318,1,0,0:0:0:0:
256,176,404529,1,8,0:0:0:0:
256,176,404952,1,8,0:0:0:0:
256,176,405163,1,0,0:0:0:0:
256,176,405374,1,0,0:0:0:0:
256,176,405586,1,8,0:0:0:0:
256,176,405797,1,0,0:0:0:0:
256,176,406008,1,8,0:0:0:0:
256,176,406431,1,8,0:0:0:0:
256,176,406642,1,8,0:0:0:0:
256,176,406853,1,0,0:0:0:0:
256,176,407064,1,0,0:0:0:0:
256,176,407276,1,0,0:0:0:0:
256,176,407487,1,8,0:0:0:0:
256,176,407909,1,8,0:0:0:0:
256,176,408121,1,0,0:0:0:0:
256,176,408332,1,0,0:0:0:0:
256,176,408543,1,8,0:0:0:0:
256,176,408754,1,0,0:0:0:0:
256,176,408966,1,8,0:0:0:0:
256,176,409388,1,8,0:0:0:0:
256,176,409600,1,0,0:0:0:0:
256,176,409811,1,8,0:0:0:0:
256,176,410022,1,0,0:0:0:0:
256,176,410233,1,0,0:0:0:0:
256,176,410445,1,8,0:0:0:0:
256,176,410867,1,8,0:0:0:0:
256,176,411078,1,8,0:0:0:0:
256,176,411290,1,0,0:0:0:0:
256,176,411501,1,0,0:0:0:0:
256,176,411712,1,8,0:0:0:0:
256,192,412136,1,8,0:0:0:0:
256,192,412347,1,0,0:0:0:0:
256,192,412558,1,8,0:0:0:0:
256,192,412769,1,0,0:0:0:0:
256,192,412981,1,0,0:0:0:0:
256,192,413192,1,8,0:0:0:0:
256,192,413403,1,0,0:0:0:0:
256,192,413615,1,8,0:0:0:0:
264,184,414037,1,8,0:0:0:0:
256,192,414248,1,0,0:0:0:0:
256,192,414460,1,0,0:0:0:0:
256,192,414671,1,0,0:0:0:0:
256,192,414882,1,0,0:0:0:0:
256,192,415093,1,8,0:0:0:0:
256,192,415516,1,8,0:0:0:0:
256,192,415727,1,0,0:0:0:0:
256,192,415939,1,0,0:0:0:0:
256,192,416150,1,8,0:0:0:0:
256,192,416361,1,0,0:0:0:0:
256,192,416572,1,8,0:0:0:0:
256,192,416995,1,8,0:0:0:0:
256,192,417206,1,8,0:0:0:0:
256,192,417417,1,0,0:0:0:0:
256,192,417629,1,0,0:0:0:0:
256,192,417840,1,0,0:0:0:0:
256,192,418051,1,8,0:0:0:0:
256,192,418262,1,0,0:0:0:0:
256,192,418474,1,8,0:0:0:0:
256,192,418685,1,8,0:0:0:0:
256,192,418896,1,0,0:0:0:0:
256,192,419108,1,0,0:0:0:0:
256,192,419319,1,0,0:0:0:0:
256,192,419530,1,8,0:0:0:0:
256,192,419953,1,8,0:0:0:0:
256,192,420164,1,8,0:0:0:0:
256,192,420375,1,0,0:0:0:0:
120,232,420586,1,0,0:0:0:0:
256,192,420798,1,8,0:0:0:0:
256,192,421009,1,8,0:0:0:0:
256,192,421220,1,0,0:0:0:0:
256,192,421431,1,8,0:0:0:0:
256,192,421643,1,8,0:0:0:0:
264,192,421854,1,8,0:0:0:0:
264,192,422065,1,0,0:0:0:0:
264,192,422277,1,0,0:0:0:0:
264,192,422488,1,8,0:0:0:0:
264,192,422910,1,8,0:0:0:0:
264,192,423122,1,8,0:0:0:0:
264,192,423333,1,0,0:0:0:0:
264,192,423544,1,0,0:0:0:0:
264,192,423755,1,0,0:0:0:0:
264,192,423967,1,8,0:0:0:0:
264,192,424178,1,0,0:0:0:0:
264,192,424389,1,8,0:0:0:0:
264,192,424600,1,8,0:0:0:0:
264,192,424812,1,8,0:0:0:0:
264,192,425023,1,0,0:0:0:0:
264,192,425234,1,8,0:0:0:0:
264,192,425446,1,0,0:0:0:0:
264,192,425657,1,8,0:0:0:0:
264,192,425868,1,8,0:0:0:0:
264,192,426079,1,0,0:0:0:0:
256,192,426291,5,0,0:0:0:0:
256,192,426396,1,8,0:0:0:0:
256,192,426502,1,8,0:0:0:0:
256,192,426608,1,8,0:0:0:0:
256,192,426713,1,0,0:0:0:0:
256,192,426819,1,8,0:0:0:0:
256,184,426924,1,8,0:0:0:0:
256,192,427136,1,4,0:0:0:0:
256,184,430305,5,8,0:0:0:0:
256,184,430516,1,0,0:0:0:0:
256,184,430727,1,8,0:0:0:0:
256,184,430939,1,8,0:0:0:0:
256,184,431150,1,0,0:0:0:0:
256,184,431361,1,0,0:0:0:0:
256,184,431572,1,0,0:0:0:0:
256,184,431784,1,8,0:0:0:0:
256,184,431995,1,0,0:0:0:0:
256,184,432206,1,8,0:0:0:0:
256,184,432417,1,8,0:0:0:0:
256,184,433262,1,8,0:0:0:0:
256,184,433474,1,0,0:0:0:0:
256,184,433685,1,0,0:0:0:0:
256,184,433896,1,8,0:0:0:0:
256,184,434108,1,0,0:0:0:0:
256,184,434319,1,8,0:0:0:0:
256,184,434530,1,8,0:0:0:0:
256,184,434741,1,0,0:0:0:0:
256,184,434953,1,0,0:0:0:0:
256,184,435164,1,0,0:0:0:0:
248,184,435375,1,8,0:0:0:0:
256,184,435586,1,0,0:0:0:0:
248,184,435798,1,8,0:0:0:0:
256,184,436009,1,8,0:0:0:0:
256,184,437065,1,8,0:0:0:0:
256,184,437277,1,0,0:0:0:0:
256,184,437488,1,8,0:0:0:0:
256,184,437699,1,8,0:0:0:0:
256,184,437910,1,8,0:0:0:0:
256,184,438122,1,8,0:0:0:0:
256,184,438333,1,0,0:0:0:0:
256,184,438544,1,8,0:0:0:0:
256,184,438755,1,0,0:0:0:0:
256,184,438967,1,8,0:0:0:0:
256,184,439178,1,8,0:0:0:0:
248,184,440023,1,8,0:0:0:0:
248,192,440234,1,0,0:0:0:0:
240,192,440446,1,0,0:0:0:0:
240,192,440657,1,8,0:0:0:0:
240,192,440868,1,0,0:0:0:0:
240,192,441079,1,8,0:0:0:0:
240,192,441291,1,0,0:0:0:0:
240,192,441502,1,8,0:0:0:0:
240,192,441713,1,0,0:0:0:0:
240,192,441924,1,0,0:0:0:0:
240,192,442136,1,8,0:0:0:0:
240,192,442347,1,0,0:0:0:0:
240,192,442558,1,8,0:0:0:0:
240,192,442769,1,8,0:0:0:0:
240,192,443826,1,8,0:0:0:0:
240,192,444037,1,0,0:0:0:0:
240,192,444248,1,8,0:0:0:0:
240,192,444460,1,8,0:0:0:0:
240,192,444671,1,8,0:0:0:0:
240,192,444882,1,0,0:0:0:0:
240,192,445093,1,0,0:0:0:0:
240,192,445305,1,8,0:0:0:0:
240,192,445516,1,0,0:0:0:0:
240,192,445727,1,8,0:0:0:0:
240,192,445939,1,8,0:0:0:0:
240,192,446784,1,8,0:0:0:0:
240,192,446995,1,0,0:0:0:0:
240,192,447206,1,0,0:0:0:0:
240,192,447417,1,8,0:0:0:0:
240,192,447629,1,0,0:0:0:0:
232,192,447840,1,8,0:0:0:0:
232,192,448051,1,8,0:0:0:0:
232,192,448262,1,8,0:0:0:0:
232,192,448474,1,0,0:0:0:0:
232,192,448685,1,0,0:0:0:0:
232,192,448896,1,8,0:0:0:0:
232,192,449108,1,0,0:0:0:0:
232,192,449319,1,8,0:0:0:0:
232,192,449530,1,8,0:0:0:0:
240,184,450586,1,8,0:0:0:0:
240,184,450798,1,0,0:0:0:0:
240,184,451009,1,8,0:0:0:0:
240,184,451220,1,8,0:0:0:0:
240,184,451431,1,0,0:0:0:0:
240,184,451643,1,0,0:0:0:0:
240,184,451854,1,0,0:0:0:0:
240,184,452065,1,8,0:0:0:0:
240,184,452277,1,0,0:0:0:0:
240,184,452488,1,8,0:0:0:0:
240,184,452699,1,8,0:0:0:0:
256,192,453332,5,0,0:0:0:0:
256,192,453438,1,8,0:0:0:0:
256,192,453544,1,8,0:0:0:0:
256,192,453650,1,8,0:0:0:0:
256,192,453755,1,0,0:0:0:0:
256,192,453861,1,8,0:0:0:0:
256,192,453967,1,8,0:0:0:0:
256,192,454178,5,4,0:0:0:0:
240,184,454389,1,0,0:0:0:0:
240,184,454600,1,8,0:0:0:0:
240,184,454811,1,0,0:0:0:0:
240,184,455445,1,0,0:0:0:0:
240,184,455656,1,8,0:0:0:0:
240,184,455868,1,0,0:0:0:0:
240,184,456079,1,8,0:0:0:0:
240,184,456290,1,0,0:0:0:0:
240,184,457347,1,0,0:0:0:0:
240,184,457558,1,0,0:0:0:0:
240,184,457769,1,8,0:0:0:0:
240,184,457980,1,0,0:0:0:0:
240,184,458614,1,0,0:0:0:0:
240,184,458825,1,8,0:0:0:0:
240,184,459037,1,0,0:0:0:0:
240,184,459248,1,8,0:0:0:0:
240,184,459459,1,0,0:0:0:0:
256,192,460727,1,0,0:0:0:0:
256,192,460938,1,8,0:0:0:0:
256,192,461149,1,0,0:0:0:0:
256,192,461361,1,8,0:0:0:0:
256,192,461572,1,0,0:0:0:0:
256,192,462206,1,0,0:0:0:0:
256,192,462417,1,8,0:0:0:0:
256,192,462628,1,0,0:0:0:0:
256,192,462839,1,8,0:0:0:0:
256,192,463051,1,0,0:0:0:0:
256,192,464107,1,0,0:0:0:0:
256,192,464318,1,0,0:0:0:0:
256,192,464530,1,8,0:0:0:0:
256,192,464741,1,0,0:0:0:0:
256,192,464952,1,8,0:0:0:0:
256,192,465163,1,0,0:0:0:0:
256,192,465375,1,0,0:0:0:0:
256,192,465586,1,8,0:0:0:0:
256,192,465797,1,0,0:0:0:0:
256,192,466008,1,8,0:0:0:0:
256,192,466220,1,8,0:0:0:0:
256,184,467699,1,0,0:0:0:0:
256,184,467910,1,0,0:0:0:0:
256,184,468121,1,8,0:0:0:0:
256,184,468332,1,0,0:0:0:0:
256,184,468966,1,0,0:0:0:0:
256,184,469178,1,8,0:0:0:0:
256,184,469389,1,0,0:0:0:0:
256,184,469600,1,8,0:0:0:0:
256,184,469811,1,0,0:0:0:0:
256,184,470868,1,0,0:0:0:0:
256,184,471079,1,0,0:0:0:0:
256,184,471290,1,8,0:0:0:0:
256,184,471501,1,0,0:0:0:0:
256,184,472135,1,0,0:0:0:0:
256,184,472347,1,8,0:0:0:0:
256,184,472558,1,0,0:0:0:0:
256,184,472769,1,8,0:0:0:0:
256,184,472980,1,0,0:0:0:0:
256,184,474248,1,0,0:0:0:0:
256,184,474459,1,8,0:0:0:0:
256,184,474670,1,0,0:0:0:0:
256,184,474882,1,8,0:0:0:0:
256,184,475093,1,0,0:0:0:0:
256,184,475727,1,0,0:0:0:0:
256,184,475938,1,8,0:0:0:0:
256,184,476149,1,0,0:0:0:0:
256,184,476361,1,8,0:0:0:0:
256,184,476572,1,0,0:0:0:0:
256,184,477628,1,0,0:0:0:0:
256,184,477839,1,0,0:0:0:0:
256,184,478051,1,8,0:0:0:0:
256,184,478262,1,0,0:0:0:0:
256,184,478473,1,8,0:0:0:0:
256,184,478685,1,0,0:0:0:0:
256,184,478896,1,0,0:0:0:0:
256,184,479107,1,8,0:0:0:0:
256,184,479318,1,0,0:0:0:0:
256,184,479530,1,8,0:0:0:0:
256,184,479741,1,8,0:0:0:0:
256,184,481220,5,4,0:0:0:0:
256,184,481431,1,0,0:0:0:0:
256,184,481642,1,8,0:0:0:0:
256,184,481854,1,0,0:0:0:0:
256,184,481959,1,0,0:0:0:0:
256,184,482065,1,8,0:0:0:0:
248,184,482276,1,0,0:0:0:0:
248,184,482487,1,0,0:0:0:0:
248,192,482699,1,8,0:0:0:0:
248,184,482910,1,0,0:0:0:0:
248,184,483121,1,8,0:0:0:0:
248,184,483332,1,8,0:0:0:0:
248,184,483544,1,0,0:0:0:0:
248,184,483966,1,0,0:0:0:0:
248,184,484072,1,0,0:0:0:0:
248,184,484178,1,8,0:0:0:0:
248,176,484389,1,0,0:0:0:0:
248,176,484600,1,0,0:0:0:0:
248,176,484811,1,0,0:0:0:0:
248,176,485023,1,8,0:0:0:0:
248,176,485234,1,0,0:0:0:0:
248,176,485445,1,8,0:0:0:0:
248,176,485656,1,0,0:0:0:0:
248,176,485868,1,0,0:0:0:0:
248,176,486079,1,0,0:0:0:0:
248,176,486290,1,8,0:0:0:0:
248,176,486501,1,0,0:0:0:0:
248,176,486924,1,0,0:0:0:0:
248,176,487347,1,8,0:0:0:0:
248,176,487452,1,8,0:0:0:0:
248,176,487558,1,0,0:0:0:0:
248,176,487769,1,0,0:0:0:0:
248,176,487980,1,8,0:0:0:0:
248,176,488192,1,0,0:0:0:0:
248,176,488403,1,8,0:0:0:0:
248,176,488614,1,0,0:0:0:0:
248,176,488825,1,8,0:0:0:0:
248,176,489037,1,0,0:0:0:0:
248,176,489248,1,0,0:0:0:0:
248,176,489459,1,8,0:0:0:0:
248,176,489670,1,8,0:0:0:0:
248,176,489882,1,0,0:0:0:0:
248,176,490093,1,8,0:0:0:0:
248,176,490304,1,0,0:0:0:0:
248,176,490727,1,8,0:0:0:0:
248,176,490832,1,0,0:0:0:0:
248,176,490938,1,8,0:0:0:0:
248,176,491149,1,0,0:0:0:0:
248,176,491361,1,8,0:0:0:0:
248,176,491572,1,0,0:0:0:0:
248,176,491783,1,8,0:0:0:0:
248,176,491994,1,0,0:0:0:0:
248,176,492206,1,8,0:0:0:0:
248,176,492417,1,0,0:0:0:0:
248,176,492628,1,0,0:0:0:0:
248,176,492839,1,0,0:0:0:0:
248,176,493051,1,8,0:0:0:0:
248,176,493262,1,0,0:0:0:0:
248,176,493473,1,8,0:0:0:0:
248,176,493685,1,8,0:0:0:0:
248,176,494107,1,0,0:0:0:0:
248,176,494213,1,0,0:0:0:0:
248,176,494318,1,8,0:0:0:0:
248,176,494424,1,0,0:0:0:0:
248,176,494530,1,0,0:0:0:0:
240,176,494741,1,0,0:0:0:0:
248,176,494952,1,0,0:0:0:0:
248,176,495163,1,8,0:0:0:0:
248,176,495375,1,0,0:0:0:0:
248,176,495586,1,8,0:0:0:0:
256,176,495797,1,8,0:0:0:0:
248,176,496008,1,0,0:0:0:0:
240,176,496220,1,8,0:0:0:0:
240,176,496431,1,8,0:0:0:0:
240,176,496642,1,0,0:0:0:0:
240,176,496748,1,0,0:0:0:0:
240,176,496854,1,8,0:0:0:0:
240,176,497065,1,0,0:0:0:0:
240,168,497487,1,8,0:0:0:0:
240,168,497593,1,0,0:0:0:0:
240,168,497699,1,8,0:0:0:0:
240,176,497804,1,0,0:0:0:0:
240,168,497910,1,0,0:0:0:0:
240,168,498121,1,0,0:0:0:0:
240,168,498332,1,8,0:0:0:0:
240,168,498544,1,8,0:0:0:0:
240,168,498755,1,0,0:0:0:0:
240,168,498861,1,0,0:0:0:0:
240,168,498966,1,8,0:0:0:0:
240,168,499178,1,0,0:0:0:0:
240,168,499389,1,0,0:0:0:0:
240,168,499600,1,8,0:0:0:0:
240,168,499811,1,8,0:0:0:0:
240,168,500023,1,0,0:0:0:0:
240,168,500234,1,8,0:0:0:0:
240,168,500445,1,0,0:0:0:0:
240,168,500868,1,8,0:0:0:0:
240,168,500973,1,8,0:0:0:0:
240,168,501079,1,0,0:0:0:0:
240,168,501185,1,0,0:0:0:0:
240,168,501290,1,0,0:0:0:0:
240,168,501501,1,8,0:0:0:0:
240,168,501713,1,0,0:0:0:0:
240,168,501924,1,8,0:0:0:0:
240,168,502135,1,0,0:0:0:0:
240,168,502347,1,8,0:0:0:0:
240,168,502558,1,0,0:0:0:0:
240,168,502769,1,0,0:0:0:0:
240,168,502980,1,8,0:0:0:0:
240,168,503192,1,8,0:0:0:0:
240,168,503403,1,0,0:0:0:0:
240,168,503614,1,8,0:0:0:0:
240,168,503825,1,0,0:0:0:0:
240,168,504248,1,0,0:0:0:0:
240,168,504354,1,0,0:0:0:0:
240,168,504459,1,8,0:0:0:0:
240,168,504565,1,0,0:0:0:0:
240,168,504670,1,0,0:0:0:0:
240,168,504882,1,8,0:0:0:0:
240,168,505093,1,8,0:0:0:0:
240,168,505304,1,8,0:0:0:0:
240,168,505516,1,0,0:0:0:0:
240,168,505727,1,0,0:0:0:0:
240,168,505938,1,8,0:0:0:0:
240,160,506149,1,0,0:0:0:0:
240,160,506361,1,8,0:0:0:0:
240,160,506572,1,8,0:0:0:0:
240,160,506783,1,0,0:0:0:0:
240,160,506994,1,8,0:0:0:0:
240,160,507206,1,0,0:0:0:0:
240,168,507628,1,8,0:0:0:0:
240,168,507734,1,0,0:0:0:0:
240,168,507839,1,0,0:0:0:0:
240,168,507945,1,8,0:0:0:0:
240,168,508051,1,0,0:0:0:0:
240,168,508262,5,4,0:0:0:0:
240,168,508473,1,8,0:0:0:0:
240,168,508896,1,8,0:0:0:0:
240,168,509318,1,8,0:0:0:0:
240,168,509741,1,8,0:0:0:0:
240,168,510163,1,8,0:0:0:0:
240,168,510586,1,8,0:0:0:0:
240,168,511008,5,8,0:0:0:0:
240,168,511220,1,0,0:0:0:0:
240,168,511431,1,8,0:0:0:0:
240,168,511642,1,0,0:0:0:0:
240,168,511854,1,8,0:0:0:0:
240,168,512276,1,8,0:0:0:0:
240,168,512699,1,8,0:0:0:0:
240,168,513121,1,8,0:0:0:0:
240,168,513332,1,0,0:0:0:0:
240,168,513544,1,8,0:0:0:0:
240,168,513966,1,8,0:0:0:0:
240,168,514178,1,0,0:0:0:0:
240,168,514389,1,8,0:0:0:0:
240,168,514600,1,8,0:0:0:0:
240,168,514811,1,8,0:0:0:0:
240,168,515023,1,0,0:0:0:0:
240,168,515234,1,8,0:0:0:0:
240,168,515656,1,8,0:0:0:0:
248,168,516079,1,8,0:0:0:0:
248,168,516501,1,8,0:0:0:0:
248,168,516713,1,0,0:0:0:0:
248,168,516924,1,8,0:0:0:0:
248,168,517347,1,8,0:0:0:0:
248,168,517558,1,0,0:0:0:0:
248,168,517769,1,8,0:0:0:0:
248,168,518192,1,8,0:0:0:0:
248,168,518403,1,0,0:0:0:0:
248,168,518614,1,8,0:0:0:0:
248,168,519037,1,8,0:0:0:0:
248,168,519248,1,0,0:0:0:0:
248,168,519459,1,8,0:0:0:0:
248,168,519882,1,8,0:0:0:0:
240,168,520093,1,0,0:0:0:0:
240,168,520304,1,8,0:0:0:0:
240,168,520516,1,0,0:0:0:0:
240,168,520727,1,8,0:0:0:0:
240,168,520938,1,0,0:0:0:0:
240,168,521149,1,8,0:0:0:0:
240,168,521361,1,0,0:0:0:0:
240,168,521572,1,8,0:0:0:0:
256,192,521783,12,4,535304,0:0:0:0:
256,192,541642,5,12,0:0:0:0:
256,192,542065,5,0,0:0:0:0:
256,192,542170,1,0,0:0:0:0:
256,192,542275,1,8,0:0:0:0:
256,192,542380,1,0,0:0:0:0:
256,192,542487,1,0,0:0:0:0:
248,192,542697,1,0,0:0:0:0:
256,192,542908,1,0,0:0:0:0:
256,192,543014,1,0,0:0:0:0:
256,192,543119,1,8,0:0:0:0:
256,192,543225,1,8,0:0:0:0:
256,192,543332,1,0,0:0:0:0:
256,192,543437,1,0,0:0:0:0:
256,192,543542,1,0,0:0:0:0:
264,200,543648,1,0,0:0:0:0:
256,192,543754,1,8,0:0:0:0:
256,192,543859,1,0,0:0:0:0:
256,200,543965,1,8,0:0:0:0:
256,192,544071,1,8,0:0:0:0:
256,200,544176,1,0,0:0:0:0:
256,192,544387,1,0,0:0:0:0:
256,192,544598,1,8,0:0:0:0:
256,192,544704,1,0,0:0:0:0:
256,192,544809,1,0,0:0:0:0:
256,200,544916,1,8,0:0:0:0:
256,200,545022,1,0,0:0:0:0:
256,192,545126,1,0,0:0:0:0:
256,192,545232,1,8,0:0:0:0:
256,200,545339,1,8,0:0:0:0:
256,200,545443,1,0,0:0:0:0:
256,200,545549,1,0,0:0:0:0:
256,200,545656,1,0,0:0:0:0:
256,200,545760,1,0,0:0:0:0:
256,200,545866,1,8,0:0:0:0:
256,200,546077,1,8,0:0:0:0:
248,200,546288,1,0,0:0:0:0:
248,200,546394,1,0,0:0:0:0:
248,200,546501,1,8,0:0:0:0:
248,200,546605,1,0,0:0:0:0:
248,200,546711,1,8,0:0:0:0:
248,200,546816,1,8,0:0:0:0:
256,200,546922,1,0,0:0:0:0:
256,200,547028,1,0,0:0:0:0:
256,200,547133,1,0,0:0:0:0:
256,200,547239,1,0,0:0:0:0:
248,200,547345,1,8,0:0:0:0:
248,200,547450,1,0,0:0:0:0:
248,200,547556,1,8,0:0:0:0:
256,200,547767,1,8,0:0:0:0:
248,208,547978,1,8,0:0:0:0:
248,208,548084,1,0,0:0:0:0:
248,208,548190,1,8,0:0:0:0:
248,208,548295,1,8,0:0:0:0:
248,208,548401,1,0,0:0:0:0:
248,208,548508,1,8,0:0:0:0:
248,208,548612,1,0,0:0:0:0:
248,208,548718,1,0,0:0:0:0:
248,208,548825,1,8,0:0:0:0:
248,208,548929,1,0,0:0:0:0:
248,208,549035,1,8,0:0:0:0:
248,208,549140,1,0,0:0:0:0:
248,208,549246,1,0,0:0:0:0:
248,208,549457,1,0,0:0:0:0:
240,208,549670,1,0,0:0:0:0:
240,208,549774,1,0,0:0:0:0:
240,208,549880,1,8,0:0:0:0:
240,208,549987,1,8,0:0:0:0:
240,208,550091,1,0,0:0:0:0:
240,208,550197,1,8,0:0:0:0:
240,208,550302,1,0,0:0:0:0:
240,208,550408,1,8,0:0:0:0:
240,208,550514,1,0,0:0:0:0:
240,208,550619,1,0,0:0:0:0:
240,208,550725,1,8,0:0:0:0:
240,208,550832,1,0,0:0:0:0:
240,208,550936,1,0,0:0:0:0:
240,208,551147,1,0,0:0:0:0:
240,208,551359,1,8,0:0:0:0:
240,208,551465,1,0,0:0:0:0:
240,208,551570,1,8,0:0:0:0:
240,208,551676,1,0,0:0:0:0:
240,208,551781,1,0,0:0:0:0:
240,208,551887,1,0,0:0:0:0:
240,208,551993,1,8,0:0:0:0:
240,208,552098,1,0,0:0:0:0:
240,208,552204,1,0,0:0:0:0:
240,208,552310,1,8,0:0:0:0:
240,208,552415,1,8,0:0:0:0:
240,208,552521,1,0,0:0:0:0:
240,208,552626,1,8,0:0:0:0:
240,208,552839,1,8,0:0:0:0:
240,208,553049,1,8,0:0:0:0:
240,208,553156,1,8,0:0:0:0:
240,208,553260,1,8,0:0:0:0:
240,208,553366,1,8,0:0:0:0:
240,208,553471,1,0,0:0:0:0:
240,208,553577,1,0,0:0:0:0:
240,208,553683,1,0,0:0:0:0:
240,208,553788,1,0,0:0:0:0:
240,208,553894,1,8,0:0:0:0:
240,208,554001,1,8,0:0:0:0:
240,208,554105,1,0,0:0:0:0:
240,208,554211,1,8,0:0:0:0:
240,208,554316,1,8,0:0:0:0:
240,208,554528,1,8,0:0:0:0:
240,208,554739,1,0,0:0:0:0:
240,208,554845,1,0,0:0:0:0:
240,208,554950,1,0,0:0:0:0:
240,208,555056,1,0,0:0:0:0:
240,208,555163,1,8,0:0:0:0:
240,208,555267,1,8,0:0:0:0:
240,208,555373,1,8,0:0:0:0:
240,208,555478,1,8,0:0:0:0:
248,200,555584,1,0,0:0:0:0:
248,200,555690,1,8,0:0:0:0:
256,200,555795,1,8,0:0:0:0:
256,200,555901,1,8,0:0:0:0:
256,200,556008,1,0,0:0:0:0:
256,200,556218,1,0,0:0:0:0:
256,200,556429,1,8,0:0:0:0:
256,200,556535,1,0,0:0:0:0:
256,200,556640,1,0,0:0:0:0:
256,200,556746,1,0,0:0:0:0:
256,200,556852,1,8,0:0:0:0:
256,200,556957,1,0,0:0:0:0:
256,200,557063,1,0,0:0:0:0:
256,200,557170,1,0,0:0:0:0:
256,200,557274,1,8,0:0:0:0:
256,200,557380,1,0,0:0:0:0:
256,200,557487,1,8,0:0:0:0:
256,200,557591,1,0,0:0:0:0:
256,200,557697,1,0,0:0:0:0:
256,200,557908,1,0,0:0:0:0:
256,200,558119,1,0,0:0:0:0:
256,200,558225,1,8,0:0:0:0:
256,200,558332,1,8,0:0:0:0:
256,200,558436,1,8,0:0:0:0:
256,200,558542,1,0,0:0:0:0:
256,200,558647,1,8,0:0:0:0:
256,200,558753,1,8,0:0:0:0:
256,200,558859,1,8,0:0:0:0:
256,200,558964,1,0,0:0:0:0:
256,200,559070,1,0,0:0:0:0:
256,200,559176,1,0,0:0:0:0:
256,192,559281,1,0,0:0:0:0:
256,200,559387,1,8,0:0:0:0:
256,200,559598,1,8,0:0:0:0:
272,192,559809,1,8,0:0:0:0:
256,200,559915,1,0,0:0:0:0:
256,200,560021,1,0,0:0:0:0:
256,200,560126,1,0,0:0:0:0:
256,200,560232,1,8,0:0:0:0:
256,200,560339,1,0,0:0:0:0:
256,200,560443,1,8,0:0:0:0:
256,200,560549,1,8,0:0:0:0:
256,200,560656,1,0,0:0:0:0:
256,200,560760,1,0,0:0:0:0:
256,200,560866,1,0,0:0:0:0:
256,200,560971,1,0,0:0:0:0:
256,200,561077,1,8,0:0:0:0:
256,200,561288,1,8,0:0:0:0:
256,192,561501,1,0,0:0:0:0:
256,192,561605,1,0,0:0:0:0:
256,192,561711,1,8,0:0:0:0:
256,192,561816,1,0,0:0:0:0:
256,192,561922,1,8,0:0:0:0:
256,200,562028,1,8,0:0:0:0:
256,200,562133,1,8,0:0:0:0:
256,200,562239,1,8,0:0:0:0:
256,200,562345,1,0,0:0:0:0:
256,200,562450,1,0,0:0:0:0:
256,200,562556,1,0,0:0:0:0:
256,200,562663,1,0,0:0:0:0:
256,200,562767,1,8,0:0:0:0:
256,192,562978,1,0,0:0:0:0:
256,200,563190,1,8,0:0:0:0:
256,200,563295,1,8,0:0:0:0:
256,200,563401,1,8,0:0:0:0:
256,200,563508,1,8,0:0:0:0:
256,200,563612,1,0,0:0:0:0:
256,200,563718,1,0,0:0:0:0:
256,200,563825,1,0,0:0:0:0:
256,200,563929,1,0,0:0:0:0:
256,200,564035,1,8,0:0:0:0:
256,200,564140,1,0,0:0:0:0:
256,200,564246,1,8,0:0:0:0:
256,200,564352,1,8,0:0:0:0:
256,200,564457,1,0,0:0:0:0:
248,200,564670,1,0,0:0:0:0:
256,200,564880,1,0,0:0:0:0:
256,200,564987,1,0,0:0:0:0:
256,200,565091,1,8,0:0:0:0:
256,200,565197,1,0,0:0:0:0:
256,200,565302,1,0,0:0:0:0:
256,200,565408,1,8,0:0:0:0:
256,200,565514,1,8,0:0:0:0:
256,200,565619,1,0,0:0:0:0:
256,200,565726,1,8,0:0:0:0:
256,200,565832,1,0,0:0:0:0:
256,200,565936,1,0,0:0:0:0:
256,200,566042,1,0,0:0:0:0:
256,200,566147,1,8,0:0:0:0:
256,200,566359,1,8,0:0:0:0:
256,200,566570,1,8,0:0:0:0:
256,200,566676,1,0,0:0:0:0:
256,200,566781,1,0,0:0:0:0:
256,200,566887,1,0,0:0:0:0:
256,200,566994,1,8,0:0:0:0:
256,200,567098,1,0,0:0:0:0:
256,200,567204,1,8,0:0:0:0:
256,200,567309,1,8,0:0:0:0:
256,192,567415,1,0,0:0:0:0:
256,192,567521,1,8,0:0:0:0:
256,192,567626,1,0,0:0:0:0:
256,200,567732,1,0,0:0:0:0:
256,192,567839,1,8,0:0:0:0:
256,192,568049,1,8,0:0:0:0:
256,192,568260,1,8,0:0:0:0:
256,192,568366,1,0,0:0:0:0:
256,192,568471,1,0,0:0:0:0:
251,198,568577,1,0,0:0:0:0:
256,192,568683,1,8,0:0:0:0:
256,200,568788,1,0,0:0:0:0:
256,192,568894,1,8,0:0:0:0:
256,192,569001,1,8,0:0:0:0:
256,192,569105,1,0,0:0:0:0:
261,193,569211,1,0,0:0:0:0:
256,192,569316,1,0,0:0:0:0:
256,192,569422,1,0,0:0:0:0:
256,192,569528,1,8,0:0:0:0:
256,192,569739,1,0,0:0:0:0:
256,192,569950,1,8,0:0:0:0:
256,192,570163,1,0,0:0:0:0:
256,192,570267,1,0,0:0:0:0:
256,192,570373,1,8,0:0:0:0:
256,192,570584,1,0,0:0:0:0:
256,192,570795,1,8,0:0:0:0:
256,192,571008,1,8,0:0:0:0:
256,192,571112,1,8,0:0:0:0:
256,192,571218,1,0,0:0:0:0:
256,192,571429,1,0,0:0:0:0:
256,192,571640,1,0,0:0:0:0:
256,192,571852,1,8,0:0:0:0:
256,192,571957,1,0,0:0:0:0:
256,192,572063,1,8,0:0:0:0:
256,192,572274,1,0,0:0:0:0:
256,192,572487,1,8,0:0:0:0:
256,192,572697,1,0,0:0:0:0:
256,192,572802,1,0,0:0:0:0:
256,192,572908,1,8,0:0:0:0:
256,192,573119,1,8,0:0:0:0:
256,192,573332,1,8,0:0:0:0:
256,192,573542,1,0,0:0:0:0:
256,192,573647,1,0,0:0:0:0:
256,192,573753,1,8,0:0:0:0:
256,192,573964,1,0,0:0:0:0:
256,192,574176,1,8,0:0:0:0:
256,192,574387,1,0,0:0:0:0:
256,192,574494,1,0,0:0:0:0:
264,192,574598,1,8,0:0:0:0:
256,192,574809,1,0,0:0:0:0:
264,192,575021,1,8,0:0:0:0:
264,192,575232,1,8,0:0:0:0:
264,192,575339,1,8,0:0:0:0:
264,192,575443,1,0,0:0:0:0:
264,192,575656,1,8,0:0:0:0:
264,192,575866,1,0,0:0:0:0:
264,192,576077,1,8,0:0:0:0:
264,192,576183,1,8,0:0:0:0:
264,192,576288,1,0,0:0:0:0:
256,193,576501,1,0,0:0:0:0:
264,192,576711,1,0,0:0:0:0:
264,192,576922,1,8,0:0:0:0:
264,192,577028,1,8,0:0:0:0:
264,192,577133,1,0,0:0:0:0:
272,192,577345,1,8,0:0:0:0:
264,192,577556,1,0,0:0:0:0:
264,192,577767,1,8,0:0:0:0:
264,192,577873,1,8,0:0:0:0:
264,192,577978,1,0,0:0:0:0:
256,193,578190,1,0,0:0:0:0:
264,192,578401,1,0,0:0:0:0:
264,192,578612,1,8,0:0:0:0:
264,192,578718,1,0,0:0:0:0:
264,192,578825,1,0,0:0:0:0:
264,192,579035,1,8,0:0:0:0:
264,192,579246,1,0,0:0:0:0:
264,192,579457,1,0,0:0:0:0:
264,192,579563,1,0,0:0:0:0:
264,192,579670,1,8,0:0:0:0:
256,193,579880,1,0,0:0:0:0:
264,192,580091,1,8,0:0:0:0:
264,192,580302,1,0,0:0:0:0:
264,192,580408,1,0,0:0:0:0:
264,192,580514,1,0,0:0:0:0:
264,192,580725,1,8,0:0:0:0:
264,192,580936,1,8,0:0:0:0:
264,192,581147,1,0,0:0:0:0:
264,192,581359,1,8,0:0:0:0:
264,192,581781,5,8,0:0:0:0:
264,192,581994,1,8,0:0:0:0:
264,192,582205,1,8,0:0:0:0:
256,192,582415,1,8,0:0:0:0:
264,192,582628,1,4,0:0:0:0:
256,192,582839,1,8,0:0:0:0:
264,192,583051,1,0,0:0:0:0:
264,192,583473,1,0,0:0:0:0:
264,192,583685,1,8,0:0:0:0:
264,192,583896,1,0,0:0:0:0:
256,192,584107,1,8,0:0:0:0:
264,192,584318,1,0,0:0:0:0:
288,192,584530,1,0,0:0:0:0:
264,192,584741,1,8,0:0:0:0:
264,192,585163,1,0,0:0:0:0:
264,192,585375,1,0,0:0:0:0:
264,192,585586,1,8,0:0:0:0:
264,192,585797,1,8,0:0:0:0:
264,192,586008,1,0,0:0:0:0:
264,192,586220,1,0,0:0:0:0:
264,192,586431,1,8,0:0:0:0:
264,192,586854,1,0,0:0:0:0:
264,192,587065,1,0,0:0:0:0:
264,192,587276,1,8,0:0:0:0:
256,192,587487,1,0,0:0:0:0:
264,192,587699,1,8,0:0:0:0:
256,192,587910,1,0,0:0:0:0:
264,192,588121,1,8,0:0:0:0:
264,192,588544,1,0,0:0:0:0:
269,192,588755,1,8,0:0:0:0:
264,192,588966,1,0,0:0:0:0:
264,192,589178,1,8,0:0:0:0:
256,192,589389,1,0,0:0:0:0:
256,192,589600,1,0,0:0:0:0:
264,192,589811,1,0,0:0:0:0:
264,192,590234,1,8,0:0:0:0:
270,192,590445,1,8,0:0:0:0:
264,192,590656,1,0,0:0:0:0:
256,192,590868,1,0,0:0:0:0:
256,192,591079,1,8,0:0:0:0:
264,192,591290,1,0,0:0:0:0:
264,192,591501,1,8,0:0:0:0:
264,192,591924,1,8,0:0:0:0:
270,192,592135,1,0,0:0:0:0:
264,192,592347,1,8,0:0:0:0:
256,192,592558,1,0,0:0:0:0:
264,192,592769,1,0,0:0:0:0:
256,192,592980,1,0,0:0:0:0:
264,192,593192,1,8,0:0:0:0:
256,192,593402,1,8,0:0:0:0:
264,192,593614,1,0,0:0:0:0:
256,192,593825,1,0,0:0:0:0:
264,192,594036,1,8,0:0:0:0:
264,192,594247,1,0,0:0:0:0:
264,192,594458,1,8,0:0:0:0:
264,192,594881,1,0,0:0:0:0:
264,192,595303,1,0,0:0:0:0:
264,192,595726,1,8,0:0:0:0:
264,192,595937,1,0,0:0:0:0:
264,192,596148,1,4,0:0:0:0:
264,192,596360,1,8,0:0:0:0:
264,192,596465,1,8,0:0:0:0:
264,192,596571,1,0,0:0:0:0:
264,192,596782,1,8,0:0:0:0:
264,192,596993,1,0,0:0:0:0:
264,192,597205,1,0,0:0:0:0:
264,192,597416,1,0,0:0:0:0:
264,192,597627,1,8,0:0:0:0:
264,192,597838,1,0,0:0:0:0:
264,192,598050,1,8,0:0:0:0:
264,192,598155,1,0,0:0:0:0:
264,192,598261,1,0,0:0:0:0:
264,192,598472,1,8,0:0:0:0:
264,192,598684,1,0,0:0:0:0:
264,192,598895,1,0,0:0:0:0:
264,192,599106,1,8,0:0:0:0:
264,192,599317,1,0,0:0:0:0:
264,192,599529,1,8,0:0:0:0:
264,192,599740,1,0,0:0:0:0:
264,192,599846,1,0,0:0:0:0:
264,192,599951,1,0,0:0:0:0:
264,192,600162,1,8,0:0:0:0:
264,192,600374,1,8,0:0:0:0:
264,192,600585,1,0,0:0:0:0:
264,192,600796,1,0,0:0:0:0:
264,192,601007,1,8,0:0:0:0:
264,192,601219,1,0,0:0:0:0:
264,192,601430,1,8,0:0:0:0:
264,192,601536,1,0,0:0:0:0:
264,192,601641,1,8,0:0:0:0:
264,192,601853,1,0,0:0:0:0:
264,192,602064,1,8,0:0:0:0:
264,192,602275,1,0,0:0:0:0:
264,192,602381,1,0,0:0:0:0:
264,192,602486,1,8,0:0:0:0:
264,192,602698,1,0,0:0:0:0:
264,192,602909,1,8,0:0:0:0:
268,188,603120,1,8,0:0:0:0:
268,188,603226,1,8,0:0:0:0:
268,188,603331,1,0,0:0:0:0:
268,188,603543,1,8,0:0:0:0:
268,188,603754,1,0,0:0:0:0:
268,188,603965,1,0,0:0:0:0:
268,188,604177,1,8,0:0:0:0:
268,188,604388,1,8,0:0:0:0:
268,188,604599,1,0,0:0:0:0:
268,188,604810,1,8,0:0:0:0:
268,188,604916,1,0,0:0:0:0:
268,188,605022,1,0,0:0:0:0:
269,188,605233,1,8,0:0:0:0:
268,188,605444,1,8,0:0:0:0:
268,188,605655,1,0,0:0:0:0:
268,188,605867,1,0,0:0:0:0:
268,188,606078,1,8,0:0:0:0:
269,188,606289,1,0,0:0:0:0:
268,188,606500,1,8,0:0:0:0:
268,188,606606,1,8,0:0:0:0:
268,188,606712,1,0,0:0:0:0:
268,188,606923,1,8,0:0:0:0:
268,188,607134,1,8,0:0:0:0:
269,188,607346,1,0,0:0:0:0:
268,188,607557,1,8,0:0:0:0:
268,188,607768,1,8,0:0:0:0:
268,188,607979,1,0,0:0:0:0:
268,188,608191,1,8,0:0:0:0:
268,188,608296,1,8,0:0:0:0:
269,188,608402,1,8,0:0:0:0:
269,188,608613,1,0,0:0:0:0:
268,188,608824,1,0,0:0:0:0:
268,188,609036,1,8,0:0:0:0:
268,188,609247,1,0,0:0:0:0:
268,188,609458,1,0,0:0:0:0:
269,188,609669,1,8,0:0:0:0:
268,188,609881,1,0,0:0:0:0:
268,188,609986,1,8,0:0:0:0:
268,188,610092,1,0,0:0:0:0:
268,188,610303,1,8,0:0:0:0:
268,188,610515,1,0,0:0:0:0:
269,188,610726,1,8,0:0:0:0:
266,181,610937,1,8,0:0:0:0:
266,183,611148,1,0,0:0:0:0:
266,181,611360,1,8,0:0:0:0:
263,186,611571,1,0,0:0:0:0:
262,187,611677,1,0,0:0:0:0:
263,186,611782,1,8,0:0:0:0:
262,187,611993,1,0,0:0:0:0:
262,187,612205,1,8,0:0:0:0:
262,187,612415,1,8,0:0:0:0:
263,186,612627,1,0,0:0:0:0:
263,186,612838,1,0,0:0:0:0:
262,187,613050,1,8,0:0:0:0:
262,187,613261,1,8,0:0:0:0:
262,187,613367,1,8,0:0:0:0:
262,187,613472,1,0,0:0:0:0:
263,186,613684,1,8,0:0:0:0:
263,186,613895,1,0,0:0:0:0:
262,187,614106,1,0,0:0:0:0:
263,186,614317,1,8,0:0:0:0:
262,187,614529,1,0,0:0:0:0:
263,186,614740,1,0,0:0:0:0:
263,186,614951,1,8,0:0:0:0:
263,186,615057,1,0,0:0:0:0:
262,187,615162,1,8,0:0:0:0:
262,187,615374,1,0,0:0:0:0:
262,187,615585,1,8,0:0:0:0:
262,187,615796,1,0,0:0:0:0:
263,186,616007,1,0,0:0:0:0:
263,186,616219,1,0,0:0:0:0:
255,184,616430,1,8,0:0:0:0:
255,184,616641,1,8,0:0:0:0:
255,184,616747,1,0,0:0:0:0:
255,184,616853,1,8,0:0:0:0:
255,184,617064,1,8,0:0:0:0:
255,184,617275,1,8,0:0:0:0:
255,184,617486,1,0,0:0:0:0:
255,184,617698,1,8,0:0:0:0:
255,184,617909,1,0,0:0:0:0:
255,184,618120,1,8,0:0:0:0:
255,184,618331,1,8,0:0:0:0:
255,184,618437,1,8,0:0:0:0:
255,184,618543,1,0,0:0:0:0:
255,184,618754,1,0,0:0:0:0:
255,184,618965,1,8,0:0:0:0:
265,189,619177,1,0,0:0:0:0:
255,184,619388,1,0,0:0:0:0:
266,189,619599,1,0,0:0:0:0:
252,188,619810,1,8,0:0:0:0:
252,188,620022,1,8,0:0:0:0:
252,188,620127,1,0,0:0:0:0:
252,188,620233,1,8,0:0:0:0:
252,188,620444,1,8,0:0:0:0:
252,188,620655,1,8,0:0:0:0:
252,188,620867,1,0,0:0:0:0:
252,188,621078,1,8,0:0:0:0:
252,188,621289,1,8,0:0:0:0:
258,192,621500,1,0,0:0:0:0:
258,192,621712,1,8,0:0:0:0:
258,192,622134,1,8,0:0:0:0:
258,192,622557,1,8,0:0:0:0:
258,192,622768,1,0,0:0:0:0:
258,192,622979,1,8,0:0:0:0:
264,192,623191,5,4,0:0:0:0:
264,192,623402,1,8,0:0:0:0:
264,192,623507,1,0,0:0:0:0:
264,192,623719,1,8,0:0:0:0:
264,192,623824,1,0,0:0:0:0:
264,192,623930,1,0,0:0:0:0:
265,191,624036,1,0,0:0:0:0:
264,192,624247,1,8,0:0:0:0:
264,192,624353,1,0,0:0:0:0:
264,192,624564,1,8,0:0:0:0:
264,192,624669,1,0,0:0:0:0:
264,192,624775,1,0,0:0:0:0:
264,192,624881,1,0,0:0:0:0:
264,192,625092,1,8,0:0:0:0:
264,192,625198,1,0,0:0:0:0:
264,192,625409,1,8,0:0:0:0:
264,192,625515,1,0,0:0:0:0:
264,192,625620,1,0,0:0:0:0:
264,192,625726,1,0,0:0:0:0:
264,192,625937,1,8,0:0:0:0:
264,192,626043,1,0,0:0:0:0:
264,192,626254,1,8,0:0:0:0:
264,192,626360,1,0,0:0:0:0:
264,192,626465,1,0,0:0:0:0:
264,192,626571,1,8,0:0:0:0:
264,192,626782,1,0,0:0:0:0:
264,192,626888,1,8,0:0:0:0:
264,192,627099,1,0,0:0:0:0:
264,192,627205,1,0,0:0:0:0:
264,192,627310,1,0,0:0:0:0:
264,192,627416,1,8,0:0:0:0:
264,192,627627,1,0,0:0:0:0:
264,192,627733,1,8,0:0:0:0:
264,192,627944,1,0,0:0:0:0:
264,192,628050,1,0,0:0:0:0:
264,192,628155,1,0,0:0:0:0:
264,192,628261,1,8,0:0:0:0:
264,192,628472,1,0,0:0:0:0:
264,192,628578,1,8,0:0:0:0:
264,192,628789,1,0,0:0:0:0:
264,192,628895,1,0,0:0:0:0:
264,192,629000,1,0,0:0:0:0:
264,192,629106,1,8,0:0:0:0:
264,192,629317,1,0,0:0:0:0:
264,192,629423,1,8,0:0:0:0:
264,192,629634,1,0,0:0:0:0:
264,192,629740,1,0,0:0:0:0:
264,192,629846,1,0,0:0:0:0:
264,192,629951,1,8,0:0:0:0:
264,192,630162,1,0,0:0:0:0:
264,192,630374,1,8,0:0:0:0:
264,192,630585,1,8,0:0:0:0:
264,192,630796,1,0,0:0:0:0:
264,192,631007,1,0,0:0:0:0:
264,192,631113,1,0,0:0:0:0:
264,192,631219,1,8,0:0:0:0:
264,192,631430,1,8,0:0:0:0:
264,192,631641,1,0,0:0:0:0:
264,192,631853,1,0,0:0:0:0:
264,192,632064,1,8,0:0:0:0:
264,192,632275,1,8,0:0:0:0:
264,192,632486,1,0,0:0:0:0:
264,192,632698,1,0,0:0:0:0:
264,192,632803,1,0,0:0:0:0:
264,192,632909,1,8,0:0:0:0:
264,192,633120,1,8,0:0:0:0:
264,192,633331,1,0,0:0:0:0:
264,192,633543,1,0,0:0:0:0:
264,192,633754,1,8,0:0:0:0:
264,192,633965,1,8,0:0:0:0:
264,192,634177,1,0,0:0:0:0:
264,192,634388,1,0,0:0:0:0:
264,192,634493,1,0,0:0:0:0:
264,192,634599,1,8,0:0:0:0:
264,192,634810,1,8,0:0:0:0:
264,192,635022,1,0,0:0:0:0:
258,191,635233,1,0,0:0:0:0:
258,191,635444,1,8,0:0:0:0:
258,191,635655,5,0,0:0:0:0:
258,191,636078,1,0,0:0:0:0:
258,191,636289,1,8,0:0:0:0:
256,186,636500,1,0,0:0:0:0:
260,189,636712,1,4,0:0:0:0:
260,189,636923,1,8,0:0:0:0:
260,189,637346,1,8,0:0:0:0:
260,189,637768,1,8,0:0:0:0:
260,189,638191,1,8,0:0:0:0:
260,189,638613,1,8,0:0:0:0:
260,189,639036,1,8,0:0:0:0:
260,189,639458,1,8,0:0:0:0:
261,183,639669,1,0,0:0:0:0:
260,189,639881,1,8,0:0:0:0:
260,189,640092,1,0,0:0:0:0:
260,189,640303,1,8,0:0:0:0:
257,186,640726,1,8,0:0:0:0:
260,189,641148,1,8,0:0:0:0:
260,189,641571,1,8,0:0:0:0:
260,189,641993,1,8,0:0:0:0:
260,189,642416,1,8,0:0:0:0:
260,189,642838,1,8,0:0:0:0:
260,189,643050,1,0,0:0:0:0:
260,189,643261,1,8,0:0:0:0:
260,189,643472,1,0,0:0:0:0:
260,189,643684,1,0,0:0:0:0:
260,189,644106,1,0,0:0:0:0:
260,189,644529,1,0,0:0:0:0:
260,189,644951,1,0,0:0:0:0:
260,189,645374,1,0,0:0:0:0:
260,189,645796,1,0,0:0:0:0:
260,189,646219,1,0,0:0:0:0:
260,189,646430,1,0,0:0:0:0:
260,189,646641,1,8,0:0:0:0:
260,189,646853,1,0,0:0:0:0:
260,189,647064,1,0,0:0:0:0:
260,189,647486,1,0,0:0:0:0:
260,189,647909,1,0,0:0:0:0:
260,189,648331,1,0,0:0:0:0:
260,189,648754,1,0,0:0:0:0:
260,189,649177,1,0,0:0:0:0:
256,192,649388,5,0,0:0:0:0:
256,192,649493,1,8,0:0:0:0:
256,192,649599,1,8,0:0:0:0:
264,192,649705,1,8,0:0:0:0:
256,192,649810,1,0,0:0:0:0:
260,189,649916,1,8,0:0:0:0:
256,192,650022,1,0,0:0:0:0:
256,192,650233,5,4,0:0:0:0:
